<svg><defs><font id="BebasNeueBold" horiz-adv-x="1000" vert-adv-y="1000"><font-face font-family="Bebas Neue Bold" font-weight="400" ascent="750" descent="-250"/><glyph glyph-name="uni23" unicode="#" d="M219 200h-65L133 0H43l21 200H15l8 78h49l19 183H41l8 78h50l17 161h90l-17-161h65l17 161h90l-17-161h51l-8-78h-51l-19-183h51l-8-78h-51L288 0h-90zm-57 78h65l19 183h-65z" horiz-adv-x="410" vert-adv-y="1000"/><glyph glyph-name="uni24" unicode="$" d="M37 522q0 71 29 114.5t87 56.5v52h90v-52q59-12 88.5-55.5T361 522v-22H257v29q0 38-14.5 53.5T202 598t-40.5-15.5T147 529q0-36 16-62t40-48.5 51.5-44T306 326t40-62.5 16-85.5q0-72-30-116T243 6v-51h-90V6Q93 18 63.5 62T34 178v48h104v-55q0-38 15.5-53t41.5-15 41.5 15 15.5 53q0 36-16 62t-40 48.5-51.5 44T93 374t-40 62.5T37 522" horiz-adv-x="396" vert-adv-y="1000"/><glyph glyph-name="uni25" unicode="%" d="M104 358q0-44 36-44 17 0 26.5 10.5T176 358v240q0 23-9.5 33.5T140 642q-36 0-36-44zM34 593q0 54 27 83t79 29 79-29 27-83V363q0-54-27-83t-79-29-79 29-27 83zm382 107h65L205 0h-65zm35-598q0-44 36-44 17 0 26.5 10.5T523 102v240q0 23-9.5 33.5T487 386q-36 0-36-44zm-70 235q0 54 27 83t79 29 79-29 27-83V107q0-54-27-83T487-5t-79 29-27 83z" horiz-adv-x="627" vert-adv-y="1000"/><glyph glyph-name="uni26" unicode="&amp;" d="M41 223q0 54 17.5 91.5T117 370q-76 32-76 144v13q0 85 40.5 129T205 700h126V600H207q-26 0-41-15t-15-53v-43q0-42 17.5-58t48.5-16h48v78h110v-78h29V315h-29V85q0-26 2-45.5T387 0H275q-4 11-6 21.5T265 55Q236-8 163-8q-61 0-91.5 41T41 152zm110-62q0-38 15.5-53.5T208 92q25 0 40 14t17 47v162h-42q-38 0-55-20t-17-69z" horiz-adv-x="414" vert-adv-y="1000"/><glyph glyph-name="uni27" unicode="'" d="M37 700h106l-16-206H52z" horiz-adv-x="180" vert-adv-y="1000"/><glyph glyph-name="uni28" unicode="(" d="M235 700v-90h-27q-26 0-38.5-12.5T157 547V153q0-38 12.5-50.5T208 90h27V0h-34q-41 0-70.5 8t-48 26.5-27 47.5-8.5 71v394q0 42 8.5 71t27 47.5 48 26.5 70.5 8z" horiz-adv-x="251" vert-adv-y="1000"/><glyph glyph-name="uni29" unicode=")" d="M50 700q82 0 118-34.5T204 547V153q0-84-36-118.5T50 0H16v90h27q26 0 38.5 12.5T94 153v394q0 38-12.5 50.5T43 610H16v90z" horiz-adv-x="251" vert-adv-y="1000"/><glyph glyph-name="uni2a" unicode="*" d="m179 535-26 165h90l-26-165 149 75 28-85-164-28 117-117-72-53-77 148-77-148-72 53 117 117L2 525l28 85z" horiz-adv-x="396" vert-adv-y="1000"/><glyph glyph-name="uni2b" unicode="+" d="M237 389h134v-78H237V174h-78v137H25v78h134v135h78z" horiz-adv-x="396" vert-adv-y="1000"/><glyph glyph-name="uni2c" unicode="," d="M40 0v106h106V11L98-100H53L82 0z" horiz-adv-x="186" vert-adv-y="1000"/><glyph glyph-name="uni2d" unicode="-" d="M35 400h200V300H35z" horiz-adv-x="270" vert-adv-y="1000"/><glyph glyph-name="uni2e" unicode="." d="M146 106V0H40v106z" horiz-adv-x="186" vert-adv-y="1000"/><glyph glyph-name="uni2f" unicode="/" d="M281 700h95L100 0H5z" horiz-adv-x="381" vert-adv-y="1000"/><glyph glyph-name="uni30" unicode="0" d="M141 161q0-38 15.5-53.5T198 92t41.5 15.5T255 161v378q0 38-15.5 53.5T198 608t-41.5-15.5T141 539zM31 532q0 85 43 130.5T198 708t124-45.5T365 532V168q0-85-43-130.5T198-8 74 37.5 31 168z" horiz-adv-x="396" vert-adv-y="1000"/><glyph glyph-name="uni31" unicode="1" d="M108 612q32 0 52.5 7t33.5 19 21 28 14 34h74V0H193v534h-85z" horiz-adv-x="396" vert-adv-y="1000"/><glyph glyph-name="uni32" unicode="2" d="M258 528q0 47-15.5 63.5T201 608t-41.5-15.5T144 539v-75H40v68q0 85 41.5 130.5T204 708t122.5-45.5T368 532q0-55-16-99.5t-40.5-81-53-67.5-53-59-40.5-54.5-16-55.5q0-10 1-15h208V0H40v86q0 51 16 90t40.5 71.5 52.5 61 52.5 60.5 40.5 70 16 89" horiz-adv-x="396" vert-adv-y="1000"/><glyph glyph-name="uni33" unicode="3" d="M252 528q0 47-15.5 63.5T195 608t-41.5-15.5T138 539v-45H34v38q0 85 41.5 130.5T198 708t122.5-45.5T362 532v-18q0-112-77-144 42-18 59.5-55.5T362 223v-55q0-85-41.5-130.5T198-8 75.5 37.5 34 168v58h104v-65q0-38 15.5-53.5T195 92t41.5 16 15.5 63v55q0 49-17 69t-55 20h-37v100h43q31 0 48.5 16t17.5 58z" horiz-adv-x="396" vert-adv-y="1000"/><glyph glyph-name="uni34" unicode="4" d="m14 227 200 473h120V227h52V127h-52V0H226v127H14zm212 0v263L115 227z" horiz-adv-x="396" vert-adv-y="1000"/><glyph glyph-name="uni35" unicode="5" d="M139 226v-65q0-38 15.5-53T196 93t41.5 15 15.5 53v154q0 38-15.5 53.5T196 384t-41.5-15.5T139 315v-21H35l20 406h290V600H154l-9-167q31 51 96 51 61 0 91.5-41T363 324V168q0-85-41.5-130.5T199-8 76.5 37.5 35 168v58z" horiz-adv-x="396" vert-adv-y="1000"/><glyph glyph-name="uni36" unicode="6" d="M33 526q0 89 41 135.5T201 708q81 0 122.5-45.5T365 532v-18H261v25q0 38-15.5 53.5T204 608q-29 0-45-18t-16-68V394q29 62 102 62 61 0 91.5-41T367 296V168q0-85-43-130.5T200-8 76 37.5 33 168zm167-170q-26 0-41.5-15.5T143 287V161q0-38 15.5-53T200 93t41.5 15 15.5 53v126q0 38-15.5 53.5T200 356" horiz-adv-x="396" vert-adv-y="1000"/><glyph glyph-name="uni37" unicode="7" d="M363 700v-96L201 0H91l161 600H33v100z" horiz-adv-x="396" vert-adv-y="1000"/><glyph glyph-name="uni38" unicode="8" d="M370 168q0-85-44-130.5T198-8 70 37.5 26 168v55q0 51 16 88.5T94 369q-68 37-68 141v22q0 85 44 130.5T198 708t128-45.5T370 532v-22q0-103-68-141 36-20 52-57.5t16-88.5zm-234 3q0-47 18-63t44-16 43.5 16 18.5 63v65q0 42-16.5 60.5T198 315t-45.5-18.5T136 236zm0 318q0-42 17.5-58t44.5-16q26 0 44 16t18 58v39q0 47-18 63.5T198 608t-44-16.5-18-63.5z" horiz-adv-x="396" vert-adv-y="1000"/><glyph glyph-name="uni39" unicode="9" d="M363 174q0-89-41-135.5T195-8Q114-8 72.5 37.5T31 168v18h104v-25q0-38 15.5-53.5T192 92q29 0 45 18t16 68v128q-29-62-102-62-61 0-91.5 41T29 404v128q0 85 43 130.5T196 708t124-45.5T363 532zM196 344q26 0 41.5 15.5T253 413v126q0 38-15.5 53T196 607t-41.5-15-15.5-53V413q0-38 15.5-53.5T196 344" horiz-adv-x="396" vert-adv-y="1000"/><glyph glyph-name="uni3a" unicode=":" d="M146 106V0H40v106zm0 381V381H40v106z" horiz-adv-x="186" vert-adv-y="1000"/><glyph glyph-name="uni3b" unicode=";" d="M40 0v106h106V11L98-100H53L82 0zm106 487V381H40v106z" horiz-adv-x="186" vert-adv-y="1000"/><glyph glyph-name="uni3c" unicode="&lt;" d="M30 311v78l326 120v-79l-224-80 224-80v-79z" horiz-adv-x="396" vert-adv-y="1000"/><glyph glyph-name="uni3d" unicode="=" d="M361 308v-78H35v78zm0 162v-78H35v78z" horiz-adv-x="396" vert-adv-y="1000"/><glyph glyph-name="uni3e" unicode="&gt;" d="M40 191v79l224 80-224 80v79l326-120v-78z" horiz-adv-x="396" vert-adv-y="1000"/><glyph glyph-name="uni3f" unicode="?" d="M120 155q-6 18-6 43 0 38 9 66t22 51.5 29 45 29 46.5 22 56.5 9 75.5q0 38-14.5 53.5T179 608t-40.5-15.5T124 539v-76H20v69q0 85 40.5 130.5T182 708t121.5-45.5T344 532q0-46-9.5-79.5t-24-60.5-31.5-49.5-31.5-44.5-24-47-9.5-57q0-22 4-39zm101-49V0H115v106z" horiz-adv-x="360" vert-adv-y="1000"/><glyph glyph-name="uni40" unicode="@" d="M476 127q-38 0-61.5 15.5T388 193q-31-63-97-60-53 2-75.5 41.5T201 287l11 101q8 74 38.5 112t83.5 36q62-1 82-62l6 58h96l-30-289q-3-25 20-25 21 0 36 21t25 54 14.5 73 4.5 78q0 47-11.5 86t-36 66.5-62 43T389 655q-67 0-117.5-26T187 555t-51.5-116.5T118 285q0-121 57-191t176-70q28 0 54 3t51 10.5 50.5 21T558 92l-8-96q-50-33-99.5-44.5T345-60q-84 0-145 25.5t-100 72T42.5 148 24 290q0 93 23 174.5t69 143 115 97T393 740q79 0 132.5-23t85.5-63 46-93.5T671 446q0-92-19.5-153.5t-49-98.5-63.5-52-63-15M298 292q-4-35 8-50t35-16 37.5 13.5T397 289l10 95q3 29-10 42.5T364 440q-23 1-38-13.5T307 377z" horiz-adv-x="689" vert-adv-y="1000"/><glyph glyph-name="uni41" unicode="A" d="M396 0H285l-19 127H131L112 0H11l112 700h161zM145 222h106l-53 354z" horiz-adv-x="407" vert-adv-y="1000"/><glyph glyph-name="uni42" unicode="B" d="M206 700q86 0 124.5-40T369 539v-25q0-54-17-89t-54-52q45-17 63.5-55.5T380 223v-57q0-81-42-123.5T213 0H40v700zm-56-385V100h63q28 0 42.5 15t14.5 54v61q0 49-16.5 67T199 315zm0 285V415h43q31 0 48.5 16t17.5 58v39q0 38-13.5 55T203 600z" horiz-adv-x="406" vert-adv-y="1000"/><glyph glyph-name="uni43" unicode="C" d="M359 261v-93q0-85-41.5-130.5T195-8 72.5 37.5 31 168v364q0 85 41.5 130.5T195 708t122.5-45.5T359 532v-68H255v75q0 38-15.5 53.5T198 608t-41.5-15.5T141 539V161q0-38 15.5-53T198 93t41.5 15 15.5 53v100z" horiz-adv-x="386" vert-adv-y="1000"/><glyph glyph-name="uni44" unicode="D" d="M40 700h174q83 0 123.5-44T378 527V173q0-85-40.5-129T214 0H40zm110-100V100h62q26 0 41 15t15 53v364q0 38-15 53t-41 15z" horiz-adv-x="408" vert-adv-y="1000"/><glyph glyph-name="uni45" unicode="E" d="M150 405h151V305H150V100h190V0H40v700h300V600H150z" horiz-adv-x="368" vert-adv-y="1000"/><glyph glyph-name="uni46" unicode="F" d="M150 389h142V289H150V0H40v700h291V600H150z" horiz-adv-x="344" vert-adv-y="1000"/><glyph glyph-name="uni47" unicode="G" d="M205 390h154V168q0-85-41.5-130.5T195-8 72.5 37.5 31 168v364q0 85 41.5 130.5T195 708t122.5-45.5T359 532v-68H255v75q0 38-15.5 53.5T198 608t-41.5-15.5T141 539V161q0-38 15.5-53T198 93t41.5 15 15.5 53v129h-50z" horiz-adv-x="390" vert-adv-y="1000"/><glyph glyph-name="uni48" unicode="H" d="M150 0H40v700h110V400h125v300h112V0H275v300H150z" horiz-adv-x="427" vert-adv-y="1000"/><glyph glyph-name="uni49" unicode="I" d="M40 700h110V0H40z" horiz-adv-x="190" vert-adv-y="1000"/><glyph glyph-name="uni4a" unicode="J" d="M10 100q9-1 19-1h19q26 0 44.5 13t18.5 54v534h110V174q0-53-13-87t-35-53.5T122.5 6 63-2H36Q24-2 10 0z" horiz-adv-x="256" vert-adv-y="1000"/><glyph glyph-name="uni4b" unicode="K" d="m184 279-34-64V0H40v700h110V395l144 305h110L251 388 404 0H291z" horiz-adv-x="414" vert-adv-y="1000"/><glyph glyph-name="uni4c" unicode="L" d="M40 700h110V100h181V0H40z" horiz-adv-x="339" vert-adv-y="1000"/><glyph glyph-name="uni4d" unicode="M" d="m273 203 75 497h153V0H397v502L321 0H217l-82 495V0H39v700h153z" horiz-adv-x="541" vert-adv-y="1000"/><glyph glyph-name="uni4e" unicode="N" d="M138 507V0H39v700h138l113-419v419h98V0H275z" horiz-adv-x="427" vert-adv-y="1000"/><glyph glyph-name="uni4f" unicode="O" d="M141 161q0-38 15.5-53.5T198 92t41.5 15.5T255 161v378q0 38-15.5 53.5T198 608t-41.5-15.5T141 539zM31 532q0 85 43 130.5T198 708t124-45.5T365 532V168q0-85-43-130.5T198-8 74 37.5 31 168z" horiz-adv-x="396" vert-adv-y="1000"/><glyph glyph-name="uni50" unicode="P" d="M202 700q83 0 123.5-44T366 527v-91q0-85-40.5-129T202 263h-52V0H40v700zm-52-100V363h52q26 0 40 14t14 52v105q0 38-14 52t-40 14z" horiz-adv-x="382" vert-adv-y="1000"/><glyph glyph-name="uni51" unicode="Q" d="M31 532q0 85 43 130.5T198 708t124-45.5T365 532V168q0-59-21-98 4-10 10.5-12.5T375 55h10v-98h-15q-37 0-60.5 12.5T275 5q-17-6-36-9.5T198-8Q117-8 74 37.5T31 168zm110-371q0-38 15.5-53.5T198 92t41.5 15.5T255 161v378q0 38-15.5 53.5T198 608t-41.5-15.5T141 539z" horiz-adv-x="396" vert-adv-y="1000"/><glyph glyph-name="uni52" unicode="R" d="M270 0q-2 7-4 13t-3.5 15-2 23-.5 35v110q0 49-17 69t-55 20h-38V0H40v700h166q86 0 124.5-40T369 539v-55q0-108-72-142 42-17 57.5-55.5T370 193V85q0-26 2-45.5T382 0zM150 600V385h43q31 0 48.5 16t17.5 58v69q0 38-13.5 55T203 600z" horiz-adv-x="402" vert-adv-y="1000"/><glyph glyph-name="uni53" unicode="S" d="M26 532q0 85 40.5 130.5T188 708t121.5-45.5T350 532v-22H246v29q0 38-14.5 53.5T191 608t-40.5-15.5T136 539q0-36 16-63.5t40-52 51.5-49T295 321t40-66 16-87q0-85-41.5-130.5T187-8 64.5 37.5 23 168v43h104v-50q0-38 15.5-53T184 93t41.5 15 15.5 53q0 36-16 63.5t-40 52-51.5 49T82 379t-40 66-16 87" horiz-adv-x="374" vert-adv-y="1000"/><glyph glyph-name="uni54" unicode="T" d="M8 700h340V600H233V0H123v600H8z" horiz-adv-x="356" vert-adv-y="1000"/><glyph glyph-name="uni55" unicode="U" d="M145 700V160q0-38 15.5-53T202 92t41.5 15 15.5 53v540h104V167q0-85-41.5-130.5T199-9 76.5 36.5 35 167v533z" horiz-adv-x="398" vert-adv-y="1000"/><glyph glyph-name="uni56" unicode="V" d="m206 129 84 571h101L283 0H119L11 700h111z" horiz-adv-x="402" vert-adv-y="1000"/><glyph glyph-name="uni57" unicode="W" d="M284 373 244 0H93L15 700h107l59-552 53 552h106l55-556 57 556h96L470 0H324z" horiz-adv-x="563" vert-adv-y="1000"/><glyph glyph-name="uni58" unicode="X" d="M407 700 292 360 415 0H299l-90 277L118 0H15l123 360L23 700h114l83-258 85 258z" horiz-adv-x="430" vert-adv-y="1000"/><glyph glyph-name="uni59" unicode="Y" d="M143 232 4 700h115l84-319 84 319h105L253 232V0H143z" horiz-adv-x="396" vert-adv-y="1000"/><glyph glyph-name="uni5a" unicode="Z" d="M345 700v-98L136 100h209V0H23v98l209 502H33v100z" horiz-adv-x="370" vert-adv-y="1000"/><glyph glyph-name="uni5b" unicode="[" d="M47 700h182v-90h-72V90h72V0H47z" horiz-adv-x="251" vert-adv-y="1000"/><glyph glyph-name="uni5c" unicode="\" d="M376 0h-95L5 700h95z" horiz-adv-x="381" vert-adv-y="1000"/><glyph glyph-name="uni5d" unicode="]" d="M204 0H22v90h72v520H22v90h182z" horiz-adv-x="251" vert-adv-y="1000"/><glyph glyph-name="uni5e" unicode="^" d="M159 700h78l139-310h-88l-90 210-90-210H20z" horiz-adv-x="396" vert-adv-y="1000"/><glyph glyph-name="uni5f" unicode="_" d="M0-10h500v-80H0z" horiz-adv-x="500" vert-adv-y="1000"/><glyph glyph-name="uni60" unicode="`" d="m157 848 68-111h-79L44 848z" horiz-adv-x="250" vert-adv-y="1000"/><glyph glyph-name="uni61" unicode="a" d="M396 0H285l-19 127H131L112 0H11l112 700h161zM145 222h106l-53 354z" horiz-adv-x="407" vert-adv-y="1000"/><glyph glyph-name="uni62" unicode="b" d="M206 700q86 0 124.5-40T369 539v-25q0-54-17-89t-54-52q45-17 63.5-55.5T380 223v-57q0-81-42-123.5T213 0H40v700zm-56-385V100h63q28 0 42.5 15t14.5 54v61q0 49-16.5 67T199 315zm0 285V415h43q31 0 48.5 16t17.5 58v39q0 38-13.5 55T203 600z" horiz-adv-x="406" vert-adv-y="1000"/><glyph glyph-name="uni63" unicode="c" d="M359 261v-93q0-85-41.5-130.5T195-8 72.5 37.5 31 168v364q0 85 41.5 130.5T195 708t122.5-45.5T359 532v-68H255v75q0 38-15.5 53.5T198 608t-41.5-15.5T141 539V161q0-38 15.5-53T198 93t41.5 15 15.5 53v100z" horiz-adv-x="386" vert-adv-y="1000"/><glyph glyph-name="uni64" unicode="d" d="M40 700h174q83 0 123.5-44T378 527V173q0-85-40.5-129T214 0H40zm110-100V100h62q26 0 41 15t15 53v364q0 38-15 53t-41 15z" horiz-adv-x="408" vert-adv-y="1000"/><glyph glyph-name="uni65" unicode="e" d="M150 405h151V305H150V100h190V0H40v700h300V600H150z" horiz-adv-x="368" vert-adv-y="1000"/><glyph glyph-name="uni66" unicode="f" d="M150 389h142V289H150V0H40v700h291V600H150z" horiz-adv-x="344" vert-adv-y="1000"/><glyph glyph-name="uni67" unicode="g" d="M205 390h154V168q0-85-41.5-130.5T195-8 72.5 37.5 31 168v364q0 85 41.5 130.5T195 708t122.5-45.5T359 532v-68H255v75q0 38-15.5 53.5T198 608t-41.5-15.5T141 539V161q0-38 15.5-53T198 93t41.5 15 15.5 53v129h-50z" horiz-adv-x="390" vert-adv-y="1000"/><glyph glyph-name="uni68" unicode="h" d="M150 0H40v700h110V400h125v300h112V0H275v300H150z" horiz-adv-x="427" vert-adv-y="1000"/><glyph glyph-name="uni69" unicode="i" d="M40 700h110V0H40z" horiz-adv-x="190" vert-adv-y="1000"/><glyph glyph-name="uni6a" unicode="j" d="M10 100q9-1 19-1h19q26 0 44.5 13t18.5 54v534h110V174q0-53-13-87t-35-53.5T122.5 6 63-2H36Q24-2 10 0z" horiz-adv-x="256" vert-adv-y="1000"/><glyph glyph-name="uni6b" unicode="k" d="m184 279-34-64V0H40v700h110V395l144 305h110L251 388 404 0H291z" horiz-adv-x="414" vert-adv-y="1000"/><glyph glyph-name="uni6c" unicode="l" d="M40 700h110V100h181V0H40z" horiz-adv-x="339" vert-adv-y="1000"/><glyph glyph-name="uni6d" unicode="m" d="m273 203 75 497h153V0H397v502L321 0H217l-82 495V0H39v700h153z" horiz-adv-x="541" vert-adv-y="1000"/><glyph glyph-name="uni6e" unicode="n" d="M138 507V0H39v700h138l113-419v419h98V0H275z" horiz-adv-x="427" vert-adv-y="1000"/><glyph glyph-name="uni6f" unicode="o" d="M141 161q0-38 15.5-53.5T198 92t41.5 15.5T255 161v378q0 38-15.5 53.5T198 608t-41.5-15.5T141 539zM31 532q0 85 43 130.5T198 708t124-45.5T365 532V168q0-85-43-130.5T198-8 74 37.5 31 168z" horiz-adv-x="396" vert-adv-y="1000"/><glyph glyph-name="uni70" unicode="p" d="M202 700q83 0 123.5-44T366 527v-91q0-85-40.5-129T202 263h-52V0H40v700zm-52-100V363h52q26 0 40 14t14 52v105q0 38-14 52t-40 14z" horiz-adv-x="377" vert-adv-y="1000"/><glyph glyph-name="uni71" unicode="q" d="M31 532q0 85 43 130.5T198 708t124-45.5T365 532V168q0-59-21-98 4-10 10.5-12.5T375 55h10v-98h-15q-37 0-60.5 12.5T275 5q-17-6-36-9.5T198-8Q117-8 74 37.5T31 168zm110-371q0-38 15.5-53.5T198 92t41.5 15.5T255 161v378q0 38-15.5 53.5T198 608t-41.5-15.5T141 539z" horiz-adv-x="396" vert-adv-y="1000"/><glyph glyph-name="uni72" unicode="r" d="M270 0q-2 7-4 13t-3.5 15-2 23-.5 35v110q0 49-17 69t-55 20h-38V0H40v700h166q86 0 124.5-40T369 539v-55q0-108-72-142 42-17 57.5-55.5T370 193V85q0-26 2-45.5T382 0zM150 600V385h43q31 0 48.5 16t17.5 58v69q0 38-13.5 55T203 600z" horiz-adv-x="402" vert-adv-y="1000"/><glyph glyph-name="uni73" unicode="s" d="M26 532q0 85 40.5 130.5T188 708t121.5-45.5T350 532v-22H246v29q0 38-14.5 53.5T191 608t-40.5-15.5T136 539q0-36 16-63.5t40-52 51.5-49T295 321t40-66 16-87q0-85-41.5-130.5T187-8 64.5 37.5 23 168v43h104v-50q0-38 15.5-53T184 93t41.5 15 15.5 53q0 36-16 63.5t-40 52-51.5 49T82 379t-40 66-16 87" horiz-adv-x="374" vert-adv-y="1000"/><glyph glyph-name="uni74" unicode="t" d="M8 700h340V600H233V0H123v600H8z" horiz-adv-x="356" vert-adv-y="1000"/><glyph glyph-name="uni75" unicode="u" d="M145 700V160q0-38 15.5-53T202 92t41.5 15 15.5 53v540h104V167q0-85-41.5-130.5T199-9 76.5 36.5 35 167v533z" horiz-adv-x="398" vert-adv-y="1000"/><glyph glyph-name="uni76" unicode="v" d="m206 129 84 571h101L283 0H119L11 700h111z" horiz-adv-x="402" vert-adv-y="1000"/><glyph glyph-name="uni77" unicode="w" d="M284 373 244 0H93L15 700h107l59-552 53 552h106l55-556 57 556h96L470 0H324z" horiz-adv-x="563" vert-adv-y="1000"/><glyph glyph-name="uni78" unicode="x" d="M407 700 292 360 415 0H299l-90 277L118 0H15l123 360L23 700h114l83-258 85 258z" horiz-adv-x="430" vert-adv-y="1000"/><glyph glyph-name="uni79" unicode="y" d="M143 232 4 700h115l84-319 84 319h105L253 232V0H143z" horiz-adv-x="396" vert-adv-y="1000"/><glyph glyph-name="uni7a" unicode="z" d="M345 700v-98L136 100h209V0H23v98l209 502H33v100z" horiz-adv-x="370" vert-adv-y="1000"/><glyph glyph-name="uni7b" unicode="{" d="M102 350q19-5 31.5-14.5T153 314t10-25.5 4-27.5l5-100q2-42 14.5-56.5T225 90h16V0h-56q-47 0-77 27t-34 84l-8 134q-2 35-12.5 47.5T11 305v90q32 0 42.5 12.5T66 455l8 134q4 57 34 84t77 27h56v-90h-16q-26 0-38.5-14.5T172 539l-5-100q-1-14-4-28t-10-26-19.5-21-31.5-14" horiz-adv-x="257" vert-adv-y="1000"/><glyph glyph-name="uni7c" unicode="|" d="M210 765h90V-65h-90z" horiz-adv-x="500" vert-adv-y="1000"/><glyph glyph-name="uni7d" unicode="}" d="M155 350q-38 10-51 35.5T90 439l-5 100q-2 42-14.5 56.5T32 610H16v90h56q47 0 77-27t34-84l8-134q2-35 12.5-47.5T246 395v-90q-32 0-42.5-12.5T191 245l-8-134q-4-57-34-84T72 0H16v90h16q26 0 38.5 14.5T85 161l5 100q1 28 14 53.5t51 35.5" horiz-adv-x="257" vert-adv-y="1000"/><glyph glyph-name="uni7e" unicode="~" d="M8 332q18 27 33.5 44T71 403.5 99 418t28 4q20 0 39-9.5t37-21 34.5-21T270 361q17 0 30 12.5t36 44.5l52-54q-36-53-63.5-69.5T269 278q-20 0-39 9.5t-37 21-34.5 21T126 339q-17 0-30-12.5T60 282z" horiz-adv-x="396" vert-adv-y="1000"/><glyph glyph-name="unia1" unicode="¡" d="m136 545 14-253V0H40v292l14 253zm-94 49v106h106V594z" horiz-adv-x="190" vert-adv-y="1000"/><glyph glyph-name="unia2" unicode="¢" d="M153 37Q95 49 65.5 92.5T36 208v284q0 71 29.5 114.5T153 663v52h90v-51q60-12 90.5-56T364 492v-48H260v55q0 38-15.5 53.5T203 568t-41.5-15.5T146 499V201q0-38 15.5-53t41.5-15 41.5 15 15.5 53v80h104v-73q0-72-30.5-116.5T243 36v-51h-90z" horiz-adv-x="396" vert-adv-y="1000"/><glyph glyph-name="unia3" unicode="£" d="M44 295h67q-9 26-21 49t-23.5 49.5-19 59.5-7.5 79q0 85 40.5 130.5T202 708t121.5-45.5T364 532v-69H260v76q0 38-14.5 53.5T205 608t-40.5-15.5T150 539q0-47 8-80t18.5-60 22-51.5T217 295h121v-85H224q-4-38-18.5-65T168 100h189V0H30v96q39 0 66 30t29 84H44z" horiz-adv-x="396" vert-adv-y="1000"/><glyph glyph-name="unia4" unicode="¤" d="M134 350q0-26 19-45t45-19 45 19 19 45-19 45-45 19-45-19-19-45m-47-68q-18 30-18 68t18 67l-55 56 43 43 56-56q30 19 67 19 35 0 67-19l56 56 43-43-56-56q19-32 19-67 0-37-19-67l56-56-43-43-56 55q-29-18-67-18t-68 18l-55-55-43 43z" horiz-adv-x="396" vert-adv-y="1000"/><glyph glyph-name="unia5" unicode="¥" d="M389 700 261 271h83v-55h-91v-45h91v-55h-91V0H143v116H52v55h91v45H52v55h82L7 700h115l81-309 81 309z" horiz-adv-x="396" vert-adv-y="1000"/><glyph glyph-name="unia6" unicode="¦" d="M210 765h90V410h-90zm0-475h90V-65h-90z" horiz-adv-x="500" vert-adv-y="1000"/><glyph glyph-name="unia7" unicode="§" d="M35 314q0 38 17 70t52 52q-29 19-49 48.5T35 566q0 60 41 101t121 41q81 0 121.5-38t40.5-98v-36H255v21q0 27-14.5 43.5T200 617q-55 0-55-56 0-21 16-34t40-24.5 51.5-24T304 446t40-49.5 16-75.5q0-38-17.5-70.5T290 198q29-18 49.5-48T360 69q0-60-41-101T198-73q-81 0-121.5 38T36 63v50h104V78q0-27 14.5-43.5T195 18q55 0 55 56 0 21-16 34t-40 24.5-51.5 24T91 189t-40 49.5T35 314m105 4q0-30 17.5-47t43.5-30q25 4 39.5 26t14.5 50q0 29-18 46t-44 30q-25-4-39-25.5T140 318" horiz-adv-x="396" vert-adv-y="1000"/><glyph glyph-name="unia8" unicode="¨" d="M97 833v-96H1v96zm152 0v-96h-96v96z" horiz-adv-x="250" vert-adv-y="1000"/><glyph glyph-name="unia9" unicode="©" d="M477 308v-56q0-59-28-90.5T364 130t-85 31.5-28 90.5v194q0 60 28 92t85 32 85-32 28-92v-36h-72v42q0 26-10.5 37T366 500t-28.5-11-10.5-37V248q0-26 10.5-36.5T366 201t28.5 10.5T405 248v60zM20 350q0 78 26.5 143.5t73 113.5T230 681.5 368 708t138-26.5T616.5 607t73-113.5T716 350t-26.5-143.5-73-113.5T506 18.5 368-8 230 18.5 119.5 93t-73 113.5T20 350m72 0q0-63 21-115.5t58-91 87.5-60T368 62t109.5 21.5 87.5 60 58 91T644 350t-21 115.5-58 91-87.5 60T368 638t-109.5-21.5-87.5-60-58-91T92 350" horiz-adv-x="736" vert-adv-y="1000"/><glyph glyph-name="uniaa" unicode="ª" d="M30 433q0 36 10.5 59.5T70 530t45 20.5 57 7.5v46q0 37-28 37-17 0-25.5-9.5T110 598v-23H44v19q0 53 25.5 82t77.5 29q51 0 73-29t22-82V333h-59l-4 48q-17-53-71-53-78 0-78 101zm212-146v-69H30v69zM100 435q0-24 9.5-33.5T136 392q16 0 25 8t11 28v78q-23-1-37.5-7t-22-15-10-19.5T100 444z" horiz-adv-x="278" vert-adv-y="1000"/><glyph glyph-name="uniab" unicode="«" d="m177 608-61-257 61-273H78L16 351l62 257zm162 0-61-257 61-273h-99l-62 273 62 257z" horiz-adv-x="355" vert-adv-y="1000"/><glyph glyph-name="uniac" unicode="¬" d="M371 389V174h-78v137H25v78z" horiz-adv-x="396" vert-adv-y="1000"/><glyph glyph-name="uniad" unicode="­" d="M35 400h200V300H35z" horiz-adv-x="270" vert-adv-y="1000"/><glyph glyph-name="uniae" unicode="®" d="M20 350q0 78 26.5 143.5t73 113.5T230 681.5 368 708t138-26.5T616.5 607t73-113.5T716 350t-26.5-143.5-73-113.5T506 18.5 368-8 230 18.5 119.5 93t-73 113.5T20 350m72 0q0-63 21-115.5t58-91 87.5-60T368 62t109.5 21.5 87.5 60 58 91T644 350t-21 115.5-58 91-87.5 60T368 638t-109.5-21.5-87.5-60-58-91T92 350m326-214q-2 5-3.5 9.5t-2 10.5-1 15.5-.5 24.5v46q0 35-12.5 48.5T360 304h-26V136h-76v428h116q59 0 86-27.5t27-84.5v-9q0-76-52-99 29-12 40.5-38.5T487 241v-46q0-17 1.5-31t7.5-28zm-84 358V374h31q21 0 33.5 11t12.5 40v18q0 51-41 51z" horiz-adv-x="736" vert-adv-y="1000"/><glyph glyph-name="uniaf" unicode="¯" d="M240 819v-78H10v78z" horiz-adv-x="250" vert-adv-y="1000"/><glyph glyph-name="unib0" unicode="°" d="M15 609q0 42 28.5 70.5T114 708t70.5-28.5T213 609t-28.5-70.5T114 510t-70.5 28.5T15 609m50 0q0-20 14.5-34.5T114 560t34.5 14.5T163 609t-14.5 34.5T114 658t-34.5-14.5T65 609" horiz-adv-x="228" vert-adv-y="1000"/><glyph glyph-name="unib1" unicode="±" d="M361 252v-78H35v78h124v80H35v78h124v114h78V410h124v-78H237v-80z" horiz-adv-x="396" vert-adv-y="1000"/><glyph glyph-name="unib2" unicode="²" d="M180 688q0 29-9.5 39.5T144 738t-26.5-10-9.5-34v-47H42v43q0 54 26 82.5t78 28.5 78-28.5 26-82.5q0-37-11-66t-27.5-53-35.5-44.5-34.5-39T117 451t-5-37h132v-63H42v54q0 32 10 57t25.5 45.5T111 547t33.5 39.5 25.5 45 10 56.5" horiz-adv-x="280" vert-adv-y="1000"/><glyph glyph-name="unib3" unicode="³" d="M174 494q0 32-11 44t-34 12h-24v63h27q20 0 31 11t11 37v25q0 30-9.5 40.5T138 737t-26.5-10.5T102 693v-28H36v23q0 54 26 83t78 29 78-29 26-83v-11q0-71-49-91 26-11 37.5-35t11.5-58v-35q0-54-26-83t-78-29-78 29-26 83v36h66v-41q0-23 9.5-33.5T138 409t26.5 10.5T174 460z" horiz-adv-x="280" vert-adv-y="1000"/><glyph glyph-name="unib4" unicode="´" d="M203 848 101 737H27l68 111z" horiz-adv-x="250" vert-adv-y="1000"/><glyph glyph-name="unib5" unicode="µ" d="M141 161q0-38 15.5-53.5T198 92t41.5 15.5T255 161v339h110V0H265v52Q234-8 165-8q-7 0-13 .5T141-6v-87H31v593h110z" horiz-adv-x="396" vert-adv-y="1000"/><glyph glyph-name="unib6" unicode="¶" d="M356-65h-80v685h-54V-65h-80l2 330q-63 0-96.5 48T14 436v91q0 85 40.5 129T178 700h178z" horiz-adv-x="396" vert-adv-y="1000"/><glyph glyph-name="unib7" unicode="·" d="M146 403V297H40v106z" horiz-adv-x="186" vert-adv-y="1000"/><glyph glyph-name="unib8" unicode="¸" d="M26-79h74v-8q0-11 7-15.5t15-4.5q25 0 25 24 0 26-36 26h-10v71h48v-53q37 0 55.5-10.5T223-86q0-20-7.5-32t-21-18.5-32-8.5-40.5-2q-41 0-68.5 11.5T26-89z" horiz-adv-x="250" vert-adv-y="1000"/><glyph glyph-name="unib9" unicode="¹" d="M25 739q20 0 33 4.5t21.5 12 13.5 18 10 21.5h46V351H79v339H25z" horiz-adv-x="200" vert-adv-y="1000"/><glyph glyph-name="uniba" unicode="º" d="M104 435q0-24 9.5-33.5T140 392t26.5 9.5T176 435v163q0 24-9.5 33.5T140 641t-26.5-9.5T104 598zM34 594q0 53 27 82t79 29 79-29 27-82V439q0-53-27-82t-79-29-79 29-27 82zm212-307v-69H34v69z" horiz-adv-x="280" vert-adv-y="1000"/><glyph glyph-name="unibb" unicode="»" d="m277 608 62-257-62-273h-99l61 273-61 257zm-162 0 62-257-62-273H16l61 273-61 257z" horiz-adv-x="355" vert-adv-y="1000"/><glyph glyph-name="unibc" unicode="¼" d="M65 644q20 0 33 4.5t21.5 12 13.5 18 10 21.5h46V256h-70v339H65zm371 56h65L225 0h-65zm-65-556 127 300h76V144h33V80h-33V0h-69v80H371zm134 0v164l-71-164z" horiz-adv-x="627" vert-adv-y="1000"/><glyph glyph-name="unibd" unicode="½" d="M65 644q20 0 33 4.5t21.5 12 13.5 18 10 21.5h46V256h-70v339H65zm341 56h65L195 0h-65zm121-363q0 29-9.5 39.5T491 387t-26.5-10-9.5-34v-47h-66v43q0 54 26 82.5t78 28.5 78-28.5 26-82.5q0-36-11-65.5T558.5 220 523 175.5t-34.5-39T464 100t-5-37h132V0H389v54q0 32 10 57t25.5 45.5T458 196t33.5 39.5 25.5 45 10 56.5" horiz-adv-x="627" vert-adv-y="1000"/><glyph glyph-name="unibe" unicode="¾" d="M174 399q0 32-11 44t-34 12h-24v63h27q20 0 31 11t11 37v25q0 30-9.5 40.5T138 642t-26.5-10.5T102 598v-28H36v23q0 54 26 83t78 29 78-29 26-83v-11q0-71-49-91 26-11 37.5-35t11.5-58v-35q0-54-26-83t-78-29-78 29-26 83v36h66v-41q0-23 9.5-33.5T138 314t26.5 10.5T174 365zm272 301h65L235 0h-65zm-75-556 127 300h76V144h33V80h-33V0h-69v80H371zm134 0v164l-71-164z" horiz-adv-x="627" vert-adv-y="1000"/><glyph glyph-name="unibf" unicode="¿" d="M240 545q6-18 6-43 0-38-9-66t-22-51.5-29-45-29-46.5-22-57-9-75q0-38 14.5-53.5T181 92t40.5 15.5T236 161v76h104v-69q0-85-40.5-130.5T178-8 56.5 37.5 16 168q0 45 9.5 79t24 61T81 357.5t31.5 44.5 24 47 9.5 57q0 22-4 39zm-101 49v106h106V594z" horiz-adv-x="360" vert-adv-y="1000"/><glyph glyph-name="unic0" unicode="À" d="M396 0H285l-19 127H131L112 0H11l112 700h161zM145 222h106l-53 354zm51 626 68-111h-79L83 848z" horiz-adv-x="407" vert-adv-y="1000"/><glyph glyph-name="unic1" unicode="Á" d="M396 0H285l-19 127H131L112 0H11l112 700h161zM145 222h106l-53 354zm176 626L219 737h-74l68 111z" horiz-adv-x="407" vert-adv-y="1000"/><glyph glyph-name="unic2" unicode="Â" d="M396 0H285l-19 127H131L112 0H11l112 700h161zM145 222h106l-53 354zM65 737l89 111h99l89-111h-94l-45 55-44-55z" horiz-adv-x="407" vert-adv-y="1000"/><glyph glyph-name="unic3" unicode="Ã" d="M396 0H285l-19 127H131L112 0H11l112 700h161zM145 222h106l-53 354zm98 591q14 0 24 5t19 24l53-37q-14-38-36.5-53T254 737q-16 0-27.5 4t-22 8.5-20 8.5-20.5 4q-14 0-24-5t-19-24l-53 37q14 38 36.5 53t48.5 15q16 0 27.5-4t22-8.5 20-8.5 20.5-4" horiz-adv-x="407" vert-adv-y="1000"/><glyph glyph-name="unic4" unicode="Ä" d="M396 0H285l-19 127H131L112 0H11l112 700h161zM145 222h106l-53 354zm30 611v-96H79v96zm152 0v-96h-96v96z" horiz-adv-x="407" vert-adv-y="1000"/><glyph glyph-name="unic5" unicode="Å" d="M396 0H285l-19 127H131L112 0H11l112 700h161zM145 222h106l-53 354zm-22 592q0 34 23 57t57 23 57-23 23-57-23-57-57-23-57 23-23 57m50 0q0-13 8.5-21.5T203 784t21.5 8.5T233 814t-8.5 21.5T203 844t-21.5-8.5T173 814" horiz-adv-x="407" vert-adv-y="1000"/><glyph glyph-name="unic6" unicode="Æ" d="M252 127H141L109 0H4l187 700h361V600H362V405h151V305H362V100h190V0H252zm0 95v337l-86-337z" horiz-adv-x="580" vert-adv-y="1000"/><glyph glyph-name="unic7" unicode="Ç" d="M359 261v-93q0-78-36-123.5T217-7v-32q37 0 55.5-10.5T291-86q0-20-7.5-32t-21-18.5-32-8.5-40.5-2q-41 0-68.5 11.5T94-89v10h74v-8q0-11 7-15.5t15-4.5q25 0 25 24 0 26-36 26h-10v51Q100 1 65.5 45.5T31 168v364q0 85 41.5 130.5T195 708t122.5-45.5T359 532v-68H255v75q0 38-15.5 53.5T198 608t-41.5-15.5T141 539V161q0-38 15.5-53T198 93t41.5 15 15.5 53v100z" horiz-adv-x="386" vert-adv-y="1000"/><glyph glyph-name="unic8" unicode="È" d="M150 405h151V305H150V100h190V0H40v700h300V600H150zm31 443 68-111h-79L68 848z" horiz-adv-x="368" vert-adv-y="1000"/><glyph glyph-name="unic9" unicode="É" d="M150 405h151V305H150V100h190V0H40v700h300V600H150zm157 443L205 737h-74l68 111z" horiz-adv-x="368" vert-adv-y="1000"/><glyph glyph-name="unica" unicode="Ê" d="M150 405h151V305H150V100h190V0H40v700h300V600H150zM50 737l89 111h99l89-111h-94l-45 55-44-55z" horiz-adv-x="368" vert-adv-y="1000"/><glyph glyph-name="unicb" unicode="Ë" d="M150 405h151V305H150V100h190V0H40v700h300V600H150zm11 428v-96H65v96zm152 0v-96h-96v96z" horiz-adv-x="368" vert-adv-y="1000"/><glyph glyph-name="unicc" unicode="Ì" d="M40 700h110V0H40zm48 148 68-111H77L-25 848z" horiz-adv-x="190" vert-adv-y="1000"/><glyph glyph-name="unicd" unicode="Í" d="M40 700h110V0H40zm173 148L111 737H37l68 111z" horiz-adv-x="190" vert-adv-y="1000"/><glyph glyph-name="unice" unicode="Î" d="M40 700h110V0H40zm-83 37 89 111h99l89-111h-94l-45 55-44-55z" horiz-adv-x="190" vert-adv-y="1000"/><glyph glyph-name="unicf" unicode="Ï" d="M40 700h110V0H40zm27 133v-96h-96v96zm152 0v-96h-96v96z" horiz-adv-x="190" vert-adv-y="1000"/><glyph glyph-name="unid0" unicode="Ð" d="M40 305H4v90h36v305h174q83 0 123.5-44T378 527V173q0-85-40.5-129T214 0H40zm110 295V395h68v-90h-68V100h62q26 0 41 15t15 53v364q0 38-15 53t-41 15z" horiz-adv-x="408" vert-adv-y="1000"/><glyph glyph-name="unid1" unicode="Ñ" d="M138 507V0H39v700h138l113-419v419h98V0H275zm115 306q14 0 24 5t19 24l53-37q-14-38-36.5-53T264 737q-16 0-27.5 4t-22 8.5-20 8.5-20.5 4q-14 0-24-5t-19-24l-53 37q14 38 36.5 53t48.5 15q16 0 27.5-4t22-8.5 20-8.5 20.5-4" horiz-adv-x="427" vert-adv-y="1000"/><glyph glyph-name="unid2" unicode="Ò" d="M141 161q0-38 15.5-53.5T198 92t41.5 15.5T255 161v378q0 38-15.5 53.5T198 608t-41.5-15.5T141 539zM31 532q0 85 43 130.5T198 708t124-45.5T365 532V168q0-85-43-130.5T198-8 74 37.5 31 168zm159 316 68-111h-79L77 848z" horiz-adv-x="396" vert-adv-y="1000"/><glyph glyph-name="unid3" unicode="Ó" d="M141 161q0-38 15.5-53.5T198 92t41.5 15.5T255 161v378q0 38-15.5 53.5T198 608t-41.5-15.5T141 539zM31 532q0 85 43 130.5T198 708t124-45.5T365 532V168q0-85-43-130.5T198-8 74 37.5 31 168zm285 316L214 737h-74l68 111z" horiz-adv-x="396" vert-adv-y="1000"/><glyph glyph-name="unid4" unicode="Ô" d="M141 161q0-38 15.5-53.5T198 92t41.5 15.5T255 161v378q0 38-15.5 53.5T198 608t-41.5-15.5T141 539zM31 532q0 85 43 130.5T198 708t124-45.5T365 532V168q0-85-43-130.5T198-8 74 37.5 31 168zm28 205 89 111h99l89-111h-94l-45 55-44-55z" horiz-adv-x="396" vert-adv-y="1000"/><glyph glyph-name="unid5" unicode="Õ" d="M141 161q0-38 15.5-53.5T198 92t41.5 15.5T255 161v378q0 38-15.5 53.5T198 608t-41.5-15.5T141 539zM31 532q0 85 43 130.5T198 708t124-45.5T365 532V168q0-85-43-130.5T198-8 74 37.5 31 168zm207 281q14 0 24 5t19 24l53-37q-14-38-36.5-53T249 737q-16 0-27.5 4t-22 8.5-20 8.5-20.5 4q-14 0-24-5t-19-24l-53 37q14 38 36.5 53t48.5 15q16 0 27.5-4t22-8.5 20-8.5 20.5-4" horiz-adv-x="396" vert-adv-y="1000"/><glyph glyph-name="unid6" unicode="Ö" d="M141 161q0-38 15.5-53.5T198 92t41.5 15.5T255 161v378q0 38-15.5 53.5T198 608t-41.5-15.5T141 539zM31 532q0 85 43 130.5T198 708t124-45.5T365 532V168q0-85-43-130.5T198-8 74 37.5 31 168zm139 301v-96H74v96zm152 0v-96h-96v96z" horiz-adv-x="396" vert-adv-y="1000"/><glyph glyph-name="unid7" unicode="×" d="m198 403 106 106 53-53-106-106 106-106-53-53-106 106L91 191l-53 53 106 106L39 455l53 53z" horiz-adv-x="396" vert-adv-y="1000"/><glyph glyph-name="unid8" unicode="Ø" d="M66 46Q31 92 31 168v364q0 85 43 130.5T198 708q60 0 100-26l20 55 37-13-26-71q36-44 36-121V168q0-85-43-130.5T198-8Q136-8 98 17L78-37 41-24zm75 205 112 309q-4 26-18.5 37T198 608q-26 0-41.5-15.5T141 539zm57-159q26 0 41.5 15.5T255 161v288L142 140q5-26 19-37t37-11" horiz-adv-x="396" vert-adv-y="1000"/><glyph glyph-name="unid9" unicode="Ù" d="M145 700V160q0-38 15.5-53T202 92t41.5 15 15.5 53v540h104V167q0-85-41.5-130.5T199-9 76.5 36.5 35 167v533zm47 148 68-111h-79L79 848z" horiz-adv-x="398" vert-adv-y="1000"/><glyph glyph-name="unida" unicode="Ú" d="M145 700V160q0-38 15.5-53T202 92t41.5 15 15.5 53v540h104V167q0-85-41.5-130.5T199-9 76.5 36.5 35 167v533zm173 148L216 737h-74l68 111z" horiz-adv-x="398" vert-adv-y="1000"/><glyph glyph-name="unidb" unicode="Û" d="M145 700V160q0-38 15.5-53T202 92t41.5 15 15.5 53v540h104V167q0-85-41.5-130.5T199-9 76.5 36.5 35 167v533zm-83 37 89 111h99l89-111h-94l-45 55-44-55z" horiz-adv-x="398" vert-adv-y="1000"/><glyph glyph-name="unidc" unicode="Ü" d="M145 700V160q0-38 15.5-53T202 92t41.5 15 15.5 53v540h104V167q0-85-41.5-130.5T199-9 76.5 36.5 35 167v533zm28 133v-96H77v96zm152 0v-96h-96v96z" horiz-adv-x="398" vert-adv-y="1000"/><glyph glyph-name="unidd" unicode="Ý" d="M143 232 4 700h115l84-319 84 319h105L253 232V0H143zm177 616L218 737h-74l68 111z" horiz-adv-x="396" vert-adv-y="1000"/><glyph glyph-name="unide" unicode="Þ" d="M40 700h110v-80h52q83 0 123.5-44T366 447v-91q0-85-40.5-129T202 183h-52V0H40zm110-180V283h52q26 0 40 14t14 52v105q0 38-14 52t-40 14z" horiz-adv-x="377" vert-adv-y="1000"/><glyph glyph-name="unidf" unicode="ß" d="M26 532q0 85 40.5 130.5T188 708t121.5-45.5T350 532v-22H246v29q0 38-14.5 53.5T191 608t-40.5-15.5T136 539q0-36 16-63.5t40-52 51.5-49T295 321t40-66 16-87q0-85-41.5-130.5T187-8 64.5 37.5 23 168v43h104v-50q0-38 15.5-53T184 93t41.5 15 15.5 53q0 36-16 63.5t-40 52-51.5 49T82 379t-40 66-16 87m374 0q0 85 40.5 130.5T562 708t121.5-45.5T724 532v-22H620v29q0 38-14.5 53.5T565 608t-40.5-15.5T510 539q0-36 16-63.5t40-52 51.5-49T669 321t40-66 16-87q0-85-41.5-130.5T561-8 438.5 37.5 397 168v43h104v-50q0-38 15.5-53T558 93t41.5 15 15.5 53q0 36-16 63.5t-40 52-51.5 49T456 379t-40 66-16 87" horiz-adv-x="748" vert-adv-y="1000"/><glyph glyph-name="unie0" unicode="à" d="M396 0H285l-19 127H131L112 0H11l112 700h161zM145 222h106l-53 354zm51 626 68-111h-79L83 848z" horiz-adv-x="407" vert-adv-y="1000"/><glyph glyph-name="unie1" unicode="á" d="M396 0H285l-19 127H131L112 0H11l112 700h161zM145 222h106l-53 354zm176 626L219 737h-74l68 111z" horiz-adv-x="407" vert-adv-y="1000"/><glyph glyph-name="unie2" unicode="â" d="M396 0H285l-19 127H131L112 0H11l112 700h161zM145 222h106l-53 354zM65 737l89 111h99l89-111h-94l-45 55-44-55z" horiz-adv-x="407" vert-adv-y="1000"/><glyph glyph-name="unie3" unicode="ã" d="M396 0H285l-19 127H131L112 0H11l112 700h161zM145 222h106l-53 354zm98 591q14 0 24 5t19 24l53-37q-14-38-36.5-53T254 737q-16 0-27.5 4t-22 8.5-20 8.5-20.5 4q-14 0-24-5t-19-24l-53 37q14 38 36.5 53t48.5 15q16 0 27.5-4t22-8.5 20-8.5 20.5-4" horiz-adv-x="407" vert-adv-y="1000"/><glyph glyph-name="unie4" unicode="ä" d="M396 0H285l-19 127H131L112 0H11l112 700h161zM145 222h106l-53 354zm30 611v-96H79v96zm152 0v-96h-96v96z" horiz-adv-x="407" vert-adv-y="1000"/><glyph glyph-name="unie5" unicode="å" d="M396 0H285l-19 127H131L112 0H11l112 700h161zM145 222h106l-53 354zm-22 592q0 34 23 57t57 23 57-23 23-57-23-57-57-23-57 23-23 57m50 0q0-13 8.5-21.5T203 784t21.5 8.5T233 814t-8.5 21.5T203 844t-21.5-8.5T173 814" horiz-adv-x="407" vert-adv-y="1000"/><glyph glyph-name="unie6" unicode="æ" d="M362 405h151V305H362V100h190V0H252v127H141L109 0H4l187 700h361V600H362zM252 222v337l-86-337z" horiz-adv-x="580" vert-adv-y="1000"/><glyph glyph-name="unie7" unicode="ç" d="M359 261v-93q0-78-36-123.5T217-7v-32q37 0 55.5-10.5T291-86q0-20-7.5-32t-21-18.5-32-8.5-40.5-2q-41 0-68.5 11.5T94-89v10h74v-8q0-11 7-15.5t15-4.5q25 0 25 24 0 26-36 26h-10v51Q100 1 65.5 45.5T31 168v364q0 85 41.5 130.5T195 708t122.5-45.5T359 532v-68H255v75q0 38-15.5 53.5T198 608t-41.5-15.5T141 539V161q0-38 15.5-53T198 93t41.5 15 15.5 53v100z" horiz-adv-x="386" vert-adv-y="1000"/><glyph glyph-name="unie8" unicode="è" d="M150 405h151V305H150V100h190V0H40v700h300V600H150zm31 443 68-111h-79L68 848z" horiz-adv-x="368" vert-adv-y="1000"/><glyph glyph-name="unie9" unicode="é" d="M150 405h151V305H150V100h190V0H40v700h300V600H150zm157 443L205 737h-74l68 111z" horiz-adv-x="368" vert-adv-y="1000"/><glyph glyph-name="uniea" unicode="ê" d="M150 405h151V305H150V100h190V0H40v700h300V600H150zM50 737l89 111h99l89-111h-94l-45 55-44-55z" horiz-adv-x="368" vert-adv-y="1000"/><glyph glyph-name="unieb" unicode="ë" d="M150 405h151V305H150V100h190V0H40v700h300V600H150zm11 428v-96H65v96zm152 0v-96h-96v96z" horiz-adv-x="368" vert-adv-y="1000"/><glyph glyph-name="uniec" unicode="ì" d="M40 700h110V0H40zm48 148 68-111H77L-25 848z" horiz-adv-x="190" vert-adv-y="1000"/><glyph glyph-name="unied" unicode="í" d="M40 700h110V0H40zm173 148L111 737H37l68 111z" horiz-adv-x="190" vert-adv-y="1000"/><glyph glyph-name="uniee" unicode="î" d="M40 700h110V0H40zm-83 37 89 111h99l89-111h-94l-45 55-44-55z" horiz-adv-x="190" vert-adv-y="1000"/><glyph glyph-name="unief" unicode="ï" d="M40 700h110V0H40zm27 133v-96h-96v96zm152 0v-96h-96v96z" horiz-adv-x="190" vert-adv-y="1000"/><glyph glyph-name="unif0" unicode="ð" d="M40 305H4v90h36v305h174q83 0 123.5-44T378 527V173q0-85-40.5-129T214 0H40zm110 295V395h68v-90h-68V100h62q26 0 41 15t15 53v364q0 38-15 53t-41 15z" horiz-adv-x="408" vert-adv-y="1000"/><glyph glyph-name="unif1" unicode="ñ" d="M138 507V0H39v700h138l113-419v419h98V0H275zm115 306q14 0 24 5t19 24l53-37q-14-38-36.5-53T264 737q-16 0-27.5 4t-22 8.5-20 8.5-20.5 4q-14 0-24-5t-19-24l-53 37q14 38 36.5 53t48.5 15q16 0 27.5-4t22-8.5 20-8.5 20.5-4" horiz-adv-x="427" vert-adv-y="1000"/><glyph glyph-name="unif2" unicode="ò" d="M141 161q0-38 15.5-53.5T198 92t41.5 15.5T255 161v378q0 38-15.5 53.5T198 608t-41.5-15.5T141 539zM31 532q0 85 43 130.5T198 708t124-45.5T365 532V168q0-85-43-130.5T198-8 74 37.5 31 168zm159 316 68-111h-79L77 848z" horiz-adv-x="396" vert-adv-y="1000"/><glyph glyph-name="unif3" unicode="ó" d="M141 161q0-38 15.5-53.5T198 92t41.5 15.5T255 161v378q0 38-15.5 53.5T198 608t-41.5-15.5T141 539zM31 532q0 85 43 130.5T198 708t124-45.5T365 532V168q0-85-43-130.5T198-8 74 37.5 31 168zm285 316L214 737h-74l68 111z" horiz-adv-x="396" vert-adv-y="1000"/><glyph glyph-name="unif4" unicode="ô" d="M141 161q0-38 15.5-53.5T198 92t41.5 15.5T255 161v378q0 38-15.5 53.5T198 608t-41.5-15.5T141 539zM31 532q0 85 43 130.5T198 708t124-45.5T365 532V168q0-85-43-130.5T198-8 74 37.5 31 168zm28 205 89 111h99l89-111h-94l-45 55-44-55z" horiz-adv-x="396" vert-adv-y="1000"/><glyph glyph-name="unif5" unicode="õ" d="M141 161q0-38 15.5-53.5T198 92t41.5 15.5T255 161v378q0 38-15.5 53.5T198 608t-41.5-15.5T141 539zM31 532q0 85 43 130.5T198 708t124-45.5T365 532V168q0-85-43-130.5T198-8 74 37.5 31 168zm207 281q14 0 24 5t19 24l53-37q-14-38-36.5-53T249 737q-16 0-27.5 4t-22 8.5-20 8.5-20.5 4q-14 0-24-5t-19-24l-53 37q14 38 36.5 53t48.5 15q16 0 27.5-4t22-8.5 20-8.5 20.5-4" horiz-adv-x="396" vert-adv-y="1000"/><glyph glyph-name="unif6" unicode="ö" d="M141 161q0-38 15.5-53.5T198 92t41.5 15.5T255 161v378q0 38-15.5 53.5T198 608t-41.5-15.5T141 539zM31 532q0 85 43 130.5T198 708t124-45.5T365 532V168q0-85-43-130.5T198-8 74 37.5 31 168zm139 301v-96H74v96zm152 0v-96h-96v96z" horiz-adv-x="396" vert-adv-y="1000"/><glyph glyph-name="unif7" unicode="÷" d="M251 250V144H145v106zm0 305V449H145v106zm120-166v-78H25v78z" horiz-adv-x="396" vert-adv-y="1000"/><glyph glyph-name="unif8" unicode="ø" d="M31 532q0 85 43 130.5T198 708q60 0 100-26l20 55 37-13-26-71q36-44 36-121V168q0-85-43-130.5T198-8Q136-8 98 17L78-37 41-24l25 70Q31 92 31 168zm110-281 112 309q-4 26-18.5 37T198 608q-26 0-41.5-15.5T141 539zm57-159q26 0 41.5 15.5T255 161v288L142 140q5-26 19-37t37-11" horiz-adv-x="396" vert-adv-y="1000"/><glyph glyph-name="unif9" unicode="ù" d="M145 700V160q0-38 15.5-53T202 92t41.5 15 15.5 53v540h104V167q0-85-41.5-130.5T199-9 76.5 36.5 35 167v533zm47 148 68-111h-79L79 848z" horiz-adv-x="398" vert-adv-y="1000"/><glyph glyph-name="unifa" unicode="ú" d="M145 700V160q0-38 15.5-53T202 92t41.5 15 15.5 53v540h104V167q0-85-41.5-130.5T199-9 76.5 36.5 35 167v533zm173 148L216 737h-74l68 111z" horiz-adv-x="398" vert-adv-y="1000"/><glyph glyph-name="unifb" unicode="û" d="M145 700V160q0-38 15.5-53T202 92t41.5 15 15.5 53v540h104V167q0-85-41.5-130.5T199-9 76.5 36.5 35 167v533zm-83 37 89 111h99l89-111h-94l-45 55-44-55z" horiz-adv-x="398" vert-adv-y="1000"/><glyph glyph-name="unifc" unicode="ü" d="M145 700V160q0-38 15.5-53T202 92t41.5 15 15.5 53v540h104V167q0-85-41.5-130.5T199-9 76.5 36.5 35 167v533zm28 133v-96H77v96zm152 0v-96h-96v96z" horiz-adv-x="398" vert-adv-y="1000"/><glyph glyph-name="unifd" unicode="ý" d="M143 232 4 700h115l84-319 84 319h105L253 232V0H143zm177 616L218 737h-74l68 111z" horiz-adv-x="396" vert-adv-y="1000"/><glyph glyph-name="unife" unicode="þ" d="M40 700h110v-80h52q83 0 123.5-44T366 447v-91q0-85-40.5-129T202 183h-52V0H40zm110-180V283h52q26 0 40 14t14 52v105q0 38-14 52t-40 14z" horiz-adv-x="377" vert-adv-y="1000"/><glyph glyph-name="uniff" unicode="ÿ" d="M143 232 4 700h115l84-319 84 319h105L253 232V0H143zm31 601v-96H78v96zm152 0v-96h-96v96z" horiz-adv-x="396" vert-adv-y="1000"/><glyph glyph-name="uni0100" unicode="Ā" d="M396 0H285l-19 127H131L112 0H11l112 700h161zM145 222h106l-53 354zm173 597v-78H88v78z" horiz-adv-x="407" vert-adv-y="1000"/><glyph glyph-name="uni0101" unicode="ā" d="M396 0H285l-19 127H131L112 0H11l112 700h161zM145 222h106l-53 354zm173 597v-78H88v78z" horiz-adv-x="407" vert-adv-y="1000"/><glyph glyph-name="uni0102" unicode="Ă" d="M396 0H285l-19 127H131L112 0H11l112 700h161zM145 222h106l-53 354zm170 626q0-53-28-84t-85-31-83.5 31T91 848h65q2-29 13.5-38t32.5-9q22 0 34 9t14 38z" horiz-adv-x="407" vert-adv-y="1000"/><glyph glyph-name="uni0103" unicode="ă" d="M396 0H285l-19 127H131L112 0H11l112 700h161zM145 222h106l-53 354zm170 626q0-53-28-84t-85-31-83.5 31T91 848h65q2-29 13.5-38t32.5-9q22 0 34 9t14 38z" horiz-adv-x="407" vert-adv-y="1000"/><glyph glyph-name="uni0104" unicode="Ą" d="M396 0h-41q-19-16-24.5-31.5T325-58q0-14 10.5-21t24.5-7q15 0 21.5 2t14.5 4v-56q-17-7-32-9t-36-2q-40 0-63.5 15.5T241-85q0 42 47 73l-22 139H131L112 0H11l112 700h161zM145 222h106l-53 354z" horiz-adv-x="407" vert-adv-y="1000"/><glyph glyph-name="uni0105" unicode="ą" d="M396 0h-41q-19-16-24.5-31.5T325-58q0-14 10.5-21t24.5-7q15 0 21.5 2t14.5 4v-56q-17-7-32-9t-36-2q-40 0-63.5 15.5T241-85q0 42 47 73l-22 139H131L112 0H11l112 700h161zM145 222h106l-53 354z" horiz-adv-x="407" vert-adv-y="1000"/><glyph glyph-name="uni0106" unicode="Ć" d="M359 261v-93q0-85-41.5-130.5T195-8 72.5 37.5 31 168v364q0 85 41.5 130.5T195 708t122.5-45.5T359 532v-68H255v75q0 38-15.5 53.5T198 608t-41.5-15.5T141 539V161q0-38 15.5-53T198 93t41.5 15 15.5 53v100zm-46 587L211 737h-74l68 111z" horiz-adv-x="386" vert-adv-y="1000"/><glyph glyph-name="uni0107" unicode="ć" d="M359 261v-93q0-85-41.5-130.5T195-8 72.5 37.5 31 168v364q0 85 41.5 130.5T195 708t122.5-45.5T359 532v-68H255v75q0 38-15.5 53.5T198 608t-41.5-15.5T141 539V161q0-38 15.5-53T198 93t41.5 15 15.5 53v100zm-46 587L211 737h-74l68 111z" horiz-adv-x="386" vert-adv-y="1000"/><glyph glyph-name="uni0108" unicode="Ĉ" d="M359 261v-93q0-85-41.5-130.5T195-8 72.5 37.5 31 168v364q0 85 41.5 130.5T195 708t122.5-45.5T359 532v-68H255v75q0 38-15.5 53.5T198 608t-41.5-15.5T141 539V161q0-38 15.5-53T198 93t41.5 15 15.5 53v100zM56 737l89 111h99l89-111h-94l-45 55-44-55z" horiz-adv-x="386" vert-adv-y="1000"/><glyph glyph-name="uni0109" unicode="ĉ" d="M359 261v-93q0-85-41.5-130.5T195-8 72.5 37.5 31 168v364q0 85 41.5 130.5T195 708t122.5-45.5T359 532v-68H255v75q0 38-15.5 53.5T198 608t-41.5-15.5T141 539V161q0-38 15.5-53T198 93t41.5 15 15.5 53v100zM56 737l89 111h99l89-111h-94l-45 55-44-55z" horiz-adv-x="386" vert-adv-y="1000"/><glyph glyph-name="uni010A" unicode="Ċ" d="M359 261v-93q0-85-41.5-130.5T195-8 72.5 37.5 31 168v364q0 85 41.5 130.5T195 708t122.5-45.5T359 532v-68H255v75q0 38-15.5 53.5T198 608t-41.5-15.5T141 539V161q0-38 15.5-53T198 93t41.5 15 15.5 53v100zM243 833v-96h-96v96z" horiz-adv-x="386" vert-adv-y="1000"/><glyph glyph-name="uni010B" unicode="ċ" d="M359 261v-93q0-85-41.5-130.5T195-8 72.5 37.5 31 168v364q0 85 41.5 130.5T195 708t122.5-45.5T359 532v-68H255v75q0 38-15.5 53.5T198 608t-41.5-15.5T141 539V161q0-38 15.5-53T198 93t41.5 15 15.5 53v100zM243 833v-96h-96v96z" horiz-adv-x="386" vert-adv-y="1000"/><glyph glyph-name="uni010C" unicode="Č" d="M359 261v-93q0-85-41.5-130.5T195-8 72.5 37.5 31 168v364q0 85 41.5 130.5T195 708t122.5-45.5T359 532v-68H255v75q0 38-15.5 53.5T198 608t-41.5-15.5T141 539V161q0-38 15.5-53T198 93t41.5 15 15.5 53v100zM150 848l44-56 45 56h94l-89-111h-99L56 848z" horiz-adv-x="386" vert-adv-y="1000"/><glyph glyph-name="uni010D" unicode="č" d="M359 261v-93q0-85-41.5-130.5T195-8 72.5 37.5 31 168v364q0 85 41.5 130.5T195 708t122.5-45.5T359 532v-68H255v75q0 38-15.5 53.5T198 608t-41.5-15.5T141 539V161q0-38 15.5-53T198 93t41.5 15 15.5 53v100zM150 848l44-56 45 56h94l-89-111h-99L56 848z" horiz-adv-x="386" vert-adv-y="1000"/><glyph glyph-name="uni010E" unicode="Ď" d="M40 700h174q83 0 123.5-44T378 527V173q0-85-40.5-129T214 0H40zm110-100V100h62q26 0 41 15t15 53v364q0 38-15 53t-41 15zm0 248 44-56 45 56h94l-89-111h-99L56 848z" horiz-adv-x="408" vert-adv-y="1000"/><glyph glyph-name="uni010F" unicode="ď" d="M40 700h174q83 0 123.5-44T378 527V173q0-85-40.5-129T214 0H40zm110-100V100h62q26 0 41 15t15 53v364q0 38-15 53t-41 15zm0 248 44-56 45 56h94l-89-111h-99L56 848z" horiz-adv-x="408" vert-adv-y="1000"/><glyph glyph-name="uni0110" unicode="Đ" d="M40 305H4v90h36v305h174q83 0 123.5-44T378 527V173q0-85-40.5-129T214 0H40zm110 295V395h68v-90h-68V100h62q26 0 41 15t15 53v364q0 38-15 53t-41 15z" horiz-adv-x="408" vert-adv-y="1000"/><glyph glyph-name="uni0111" unicode="đ" d="M40 305H4v90h36v305h174q83 0 123.5-44T378 527V173q0-85-40.5-129T214 0H40zm110 295V395h68v-90h-68V100h62q26 0 41 15t15 53v364q0 38-15 53t-41 15z" horiz-adv-x="408" vert-adv-y="1000"/><glyph glyph-name="uni0112" unicode="Ē" d="M150 405h151V305H150V100h190V0H40v700h300V600H150zm153 414v-78H73v78z" horiz-adv-x="368" vert-adv-y="1000"/><glyph glyph-name="uni0113" unicode="ē" d="M150 405h151V305H150V100h190V0H40v700h300V600H150zm153 414v-78H73v78z" horiz-adv-x="368" vert-adv-y="1000"/><glyph glyph-name="uni0114" unicode="Ĕ" d="M150 405h151V305H150V100h190V0H40v700h300V600H150zm150 443q0-53-28-84t-85-31-83.5 31T76 848h65q2-29 13.5-38t32.5-9q22 0 34 9t14 38z" horiz-adv-x="368" vert-adv-y="1000"/><glyph glyph-name="uni0115" unicode="ĕ" d="M150 405h151V305H150V100h190V0H40v700h300V600H150zm150 443q0-53-28-84t-85-31-83.5 31T76 848h65q2-29 13.5-38t32.5-9q22 0 34 9t14 38z" horiz-adv-x="368" vert-adv-y="1000"/><glyph glyph-name="uni0116" unicode="Ė" d="M150 405h151V305H150V100h190V0H40v700h300V600H150zm86 428v-96h-96v96z" horiz-adv-x="368" vert-adv-y="1000"/><glyph glyph-name="uni0117" unicode="ė" d="M150 405h151V305H150V100h190V0H40v700h300V600H150zm86 428v-96h-96v96z" horiz-adv-x="368" vert-adv-y="1000"/><glyph glyph-name="uni0118" unicode="Ę" d="M150 405h151V305H150V100h190V0h-41q-19-16-24.5-31.5T269-58q0-14 10.5-21t24.5-7q15 0 21.5 2t14.5 4v-56q-17-7-32-9t-36-2q-40 0-63.5 15.5T185-85q0 24 16.5 46T252 0H40v700h300V600H150z" horiz-adv-x="368" vert-adv-y="1000"/><glyph glyph-name="uni0119" unicode="ę" d="M150 405h151V305H150V100h190V0h-41q-19-16-24.5-31.5T269-58q0-14 10.5-21t24.5-7q15 0 21.5 2t14.5 4v-56q-17-7-32-9t-36-2q-40 0-63.5 15.5T185-85q0 24 16.5 46T252 0H40v700h300V600H150z" horiz-adv-x="368" vert-adv-y="1000"/><glyph glyph-name="uni011A" unicode="Ě" d="M150 405h151V305H150V100h190V0H40v700h300V600H150zm-7 443 44-56 45 56h94l-89-111h-99L49 848z" horiz-adv-x="368" vert-adv-y="1000"/><glyph glyph-name="uni011B" unicode="ě" d="M150 405h151V305H150V100h190V0H40v700h300V600H150zm-7 443 44-56 45 56h94l-89-111h-99L49 848z" horiz-adv-x="368" vert-adv-y="1000"/><glyph glyph-name="uni011C" unicode="Ĝ" d="M205 390h154V168q0-85-41.5-130.5T195-8 72.5 37.5 31 168v364q0 85 41.5 130.5T195 708t122.5-45.5T359 532v-68H255v75q0 38-15.5 53.5T198 608t-41.5-15.5T141 539V161q0-38 15.5-53T198 93t41.5 15 15.5 53v129h-50zM56 737l89 111h99l89-111h-94l-45 55-44-55z" horiz-adv-x="390" vert-adv-y="1000"/><glyph glyph-name="uni011D" unicode="ĝ" d="M205 390h154V168q0-85-41.5-130.5T195-8 72.5 37.5 31 168v364q0 85 41.5 130.5T195 708t122.5-45.5T359 532v-68H255v75q0 38-15.5 53.5T198 608t-41.5-15.5T141 539V161q0-38 15.5-53T198 93t41.5 15 15.5 53v129h-50zM56 737l89 111h99l89-111h-94l-45 55-44-55z" horiz-adv-x="390" vert-adv-y="1000"/><glyph glyph-name="uni011E" unicode="Ğ" d="M205 390h154V168q0-85-41.5-130.5T195-8 72.5 37.5 31 168v364q0 85 41.5 130.5T195 708t122.5-45.5T359 532v-68H255v75q0 38-15.5 53.5T198 608t-41.5-15.5T141 539V161q0-38 15.5-53T198 93t41.5 15 15.5 53v129h-50zm101 458q0-53-28-84t-85-31-83.5 31T82 848h65q2-29 13.5-38t32.5-9q22 0 34 9t14 38z" horiz-adv-x="390" vert-adv-y="1000"/><glyph glyph-name="uni011F" unicode="ğ" d="M205 390h154V168q0-85-41.5-130.5T195-8 72.5 37.5 31 168v364q0 85 41.5 130.5T195 708t122.5-45.5T359 532v-68H255v75q0 38-15.5 53.5T198 608t-41.5-15.5T141 539V161q0-38 15.5-53T198 93t41.5 15 15.5 53v129h-50zm101 458q0-53-28-84t-85-31-83.5 31T82 848h65q2-29 13.5-38t32.5-9q22 0 34 9t14 38z" horiz-adv-x="390" vert-adv-y="1000"/><glyph glyph-name="uni0120" unicode="Ġ" d="M205 390h154V168q0-85-41.5-130.5T195-8 72.5 37.5 31 168v364q0 85 41.5 130.5T195 708t122.5-45.5T359 532v-68H255v75q0 38-15.5 53.5T198 608t-41.5-15.5T141 539V161q0-38 15.5-53T198 93t41.5 15 15.5 53v129h-50zm37 443v-96h-96v96z" horiz-adv-x="390" vert-adv-y="1000"/><glyph glyph-name="uni0121" unicode="ġ" d="M205 390h154V168q0-85-41.5-130.5T195-8 72.5 37.5 31 168v364q0 85 41.5 130.5T195 708t122.5-45.5T359 532v-68H255v75q0 38-15.5 53.5T198 608t-41.5-15.5T141 539V161q0-38 15.5-53T198 93t41.5 15 15.5 53v129h-50zm37 443v-96h-96v96z" horiz-adv-x="390" vert-adv-y="1000"/><glyph glyph-name="uni0122" unicode="Ģ" d="M205 390h154V168q0-85-41.5-130.5T195-8 72.5 37.5 31 168v364q0 85 41.5 130.5T195 708t122.5-45.5T359 532v-68H255v75q0 38-15.5 53.5T198 608t-41.5-15.5T141 539V161q0-38 15.5-53T198 93t41.5 15 15.5 53v129h-50zm-56-515v92h92v-82l-43-64h-39l26 54z" horiz-adv-x="390" vert-adv-y="1000"/><glyph glyph-name="uni0123" unicode="ģ" d="M205 390h154V168q0-85-41.5-130.5T195-8 72.5 37.5 31 168v364q0 85 41.5 130.5T195 708t122.5-45.5T359 532v-68H255v75q0 38-15.5 53.5T198 608t-41.5-15.5T141 539V161q0-38 15.5-53T198 93t41.5 15 15.5 53v129h-50zm-56-515v92h92v-82l-43-64h-39l26 54z" horiz-adv-x="390" vert-adv-y="1000"/><glyph glyph-name="uni0124" unicode="Ĥ" d="M150 0H40v700h110V400h125v300h112V0H275v300H150zM75 737l89 111h99l89-111h-94l-45 55-44-55z" horiz-adv-x="427" vert-adv-y="1000"/><glyph glyph-name="uni0125" unicode="ĥ" d="M150 0H40v700h110V400h125v300h112V0H275v300H150zM75 737l89 111h99l89-111h-94l-45 55-44-55z" horiz-adv-x="427" vert-adv-y="1000"/><glyph glyph-name="uni0126" unicode="Ħ" d="M155 0H45v502H10v82h35v116h110V584h125v116h112V584h35v-82h-35V0H280v300H155zm125 400v102H155V400z" horiz-adv-x="437" vert-adv-y="1000"/><glyph glyph-name="uni0127" unicode="ħ" d="M155 0H45v502H10v82h35v116h110V584h125v116h112V584h35v-82h-35V0H280v300H155zm125 400v102H155V400z" horiz-adv-x="437" vert-adv-y="1000"/><glyph glyph-name="uni0128" unicode="Ĩ" d="M40 700h110V0H40zm95 113q14 0 24 5t19 24l53-37q-14-38-36.5-53T146 737q-16 0-27.5 4t-22 8.5-20 8.5-20.5 4q-14 0-24-5t-19-24l-53 37q14 38 36.5 53T45 838q16 0 27.5-4t22-8.5 20-8.5 20.5-4" horiz-adv-x="190" vert-adv-y="1000"/><glyph glyph-name="uni0129" unicode="ĩ" d="M40 700h110V0H40zm95 113q14 0 24 5t19 24l53-37q-14-38-36.5-53T146 737q-16 0-27.5 4t-22 8.5-20 8.5-20.5 4q-14 0-24-5t-19-24l-53 37q14 38 36.5 53T45 838q16 0 27.5-4t22-8.5 20-8.5 20.5-4" horiz-adv-x="190" vert-adv-y="1000"/><glyph glyph-name="uni012A" unicode="Ī" d="M40 700h110V0H40zm170 119v-78H-20v78z" horiz-adv-x="190" vert-adv-y="1000"/><glyph glyph-name="uni012B" unicode="ī" d="M40 700h110V0H40zm170 119v-78H-20v78z" horiz-adv-x="190" vert-adv-y="1000"/><glyph glyph-name="uni012C" unicode="Ĭ" d="M40 700h110V0H40zm167 148q0-53-28-84t-85-31-83.5 31-27.5 84h65q2-29 13.5-38t32.5-9q22 0 34 9t14 38z" horiz-adv-x="190" vert-adv-y="1000"/><glyph glyph-name="uni012D" unicode="ĭ" d="M40 700h110V0H40zm167 148q0-53-28-84t-85-31-83.5 31-27.5 84h65q2-29 13.5-38t32.5-9q22 0 34 9t14 38z" horiz-adv-x="190" vert-adv-y="1000"/><glyph glyph-name="uni012E" unicode="Į" d="M40 700h110V0h-20q-19-16-24.5-31.5T100-58q0-14 10.5-21t24.5-7q15 0 21.5 2t14.5 4v-56q-17-7-32-9t-36-2q-40 0-63.5 15.5T16-85q0 24 16.5 46T83 0H40z" horiz-adv-x="190" vert-adv-y="1000"/><glyph glyph-name="uni012F" unicode="į" d="M40 700h110V0h-20q-19-16-24.5-31.5T100-58q0-14 10.5-21t24.5-7q15 0 21.5 2t14.5 4v-56q-17-7-32-9t-36-2q-40 0-63.5 15.5T16-85q0 24 16.5 46T83 0H40z" horiz-adv-x="190" vert-adv-y="1000"/><glyph glyph-name="uni0130" unicode="İ" d="M40 700h110V0H40zm103 133v-96H47v96z" horiz-adv-x="190" vert-adv-y="1000"/><glyph glyph-name="uni0131" unicode="ı" d="M40 700h110V0H40z" horiz-adv-x="190" vert-adv-y="1000"/><glyph glyph-name="uni0132" unicode="Ĳ" d="M40 700h110V0H40zm160-600q9-1 19-1h19q26 0 44.5 13t18.5 54v534h110V174q0-53-13-87t-35-53.5T312.5 6 253-2h-27q-12 0-26 2z" horiz-adv-x="446" vert-adv-y="1000"/><glyph glyph-name="uni0133" unicode="ĳ" d="M40 700h110V0H40zm160-600q9-1 19-1h19q26 0 44.5 13t18.5 54v534h110V174q0-53-13-87t-35-53.5T312.5 6 253-2h-27q-12 0-26 2z" horiz-adv-x="446" vert-adv-y="1000"/><glyph glyph-name="uni0134" unicode="Ĵ" d="M10 100q9-1 19-1h19q26 0 44.5 13t18.5 54v534h110V174q0-53-13-87t-35-53.5T122.5 6 63-2H36Q24-2 10 0zM9 737l89 111h99l89-111h-94l-45 55-44-55z" horiz-adv-x="256" vert-adv-y="1000"/><glyph glyph-name="uni0135" unicode="ĵ" d="M10 100q9-1 19-1h19q26 0 44.5 13t18.5 54v534h110V174q0-53-13-87t-35-53.5T122.5 6 63-2H36Q24-2 10 0zM9 737l89 111h99l89-111h-94l-45 55-44-55z" horiz-adv-x="256" vert-adv-y="1000"/><glyph glyph-name="uni0136" unicode="Ķ" d="m184 279-34-64V0H40v700h110V395l144 305h110L251 388 404 0H291zm-15-404v92h92v-82l-43-64h-39l26 54z" horiz-adv-x="414" vert-adv-y="1000"/><glyph glyph-name="uni0137" unicode="ķ" d="m184 279-34-64V0H40v700h110V395l144 305h110L251 388 404 0H291zm-15-404v92h92v-82l-43-64h-39l26 54z" horiz-adv-x="414" vert-adv-y="1000"/><glyph glyph-name="uni0138" unicode="ĸ" d="m184 279-34-64V0H40v700h110V395l144 305h110L251 388 404 0H291z" horiz-adv-x="414" vert-adv-y="1000"/><glyph glyph-name="uni0139" unicode="Ĺ" d="M40 700h110V100h181V0H40zm208 148L146 737H72l68 111z" horiz-adv-x="339" vert-adv-y="1000"/><glyph glyph-name="uni013A" unicode="ĺ" d="M40 700h110V100h181V0H40zm208 148L146 737H72l68 111z" horiz-adv-x="339" vert-adv-y="1000"/><glyph glyph-name="uni013B" unicode="Ļ" d="M40 700h110V100h181V0H40zm100-825v92h92v-82l-43-64h-39l26 54z" horiz-adv-x="339" vert-adv-y="1000"/><glyph glyph-name="uni013C" unicode="ļ" d="M40 700h110V100h181V0H40zm100-825v92h92v-82l-43-64h-39l26 54z" horiz-adv-x="339" vert-adv-y="1000"/><glyph glyph-name="uni013D" unicode="Ľ" d="M40 700h110V100h181V0H40zm171-106v106h106v-95l-48-111h-45l29 100z" horiz-adv-x="339" vert-adv-y="1000"/><glyph glyph-name="uni013E" unicode="ľ" d="M40 700h110V100h181V0H40zm171-106v106h106v-95l-48-111h-45l29 100z" horiz-adv-x="339" vert-adv-y="1000"/><glyph glyph-name="uni013F" unicode="Ŀ" d="M40 700h110V100h181V0H40zm276-297V297H210v106z" horiz-adv-x="339" vert-adv-y="1000"/><glyph glyph-name="uni0140" unicode="ŀ" d="M40 700h110V100h181V0H40zm276-297V297H210v106z" horiz-adv-x="339" vert-adv-y="1000"/><glyph glyph-name="uni0141" unicode="Ł" d="m0 195 49 52v453h110V365l121 130V395L159 265V100h181V0H49v147L0 95z" horiz-adv-x="348" vert-adv-y="1000"/><glyph glyph-name="uni0142" unicode="ł" d="m0 195 49 52v453h110V365l121 130V395L159 265V100h181V0H49v147L0 95z" horiz-adv-x="348" vert-adv-y="1000"/><glyph glyph-name="uni0143" unicode="Ń" d="M138 507V0H39v700h138l113-419v419h98V0H275zm193 341L229 737h-74l68 111z" horiz-adv-x="427" vert-adv-y="1000"/><glyph glyph-name="uni0144" unicode="ń" d="M138 507V0H39v700h138l113-419v419h98V0H275zm193 341L229 737h-74l68 111z" horiz-adv-x="427" vert-adv-y="1000"/><glyph glyph-name="uni0145" unicode="Ņ" d="M138 507V0H39v700h138l113-419v419h98V0H275zm29-632v92h92v-82l-43-64h-39l26 54z" horiz-adv-x="427" vert-adv-y="1000"/><glyph glyph-name="uni0146" unicode="ņ" d="M138 507V0H39v700h138l113-419v419h98V0H275zm29-632v92h92v-82l-43-64h-39l26 54z" horiz-adv-x="427" vert-adv-y="1000"/><glyph glyph-name="uni0147" unicode="Ň" d="M138 507V0H39v700h138l113-419v419h98V0H275zm31 341 44-56 45 56h94l-89-111h-99L75 848z" horiz-adv-x="427" vert-adv-y="1000"/><glyph glyph-name="uni0148" unicode="ň" d="M138 507V0H39v700h138l113-419v419h98V0H275zm31 341 44-56 45 56h94l-89-111h-99L75 848z" horiz-adv-x="427" vert-adv-y="1000"/><glyph glyph-name="uni0149" unicode="ŉ" d="M254 507V0h-99v700h138l113-419v419h98V0H391zM5 594v106h106v-95L63 494H18l29 100z" horiz-adv-x="543" vert-adv-y="1000"/><glyph glyph-name="uni014C" unicode="Ō" d="M141 161q0-38 15.5-53.5T198 92t41.5 15.5T255 161v378q0 38-15.5 53.5T198 608t-41.5-15.5T141 539zM31 532q0 85 43 130.5T198 708t124-45.5T365 532V168q0-85-43-130.5T198-8 74 37.5 31 168zm282 287v-78H83v78z" horiz-adv-x="396" vert-adv-y="1000"/><glyph glyph-name="uni014D" unicode="ō" d="M141 161q0-38 15.5-53.5T198 92t41.5 15.5T255 161v378q0 38-15.5 53.5T198 608t-41.5-15.5T141 539zM31 532q0 85 43 130.5T198 708t124-45.5T365 532V168q0-85-43-130.5T198-8 74 37.5 31 168zm282 287v-78H83v78z" horiz-adv-x="396" vert-adv-y="1000"/><glyph glyph-name="uni014E" unicode="Ŏ" d="M141 161q0-38 15.5-53.5T198 92t41.5 15.5T255 161v378q0 38-15.5 53.5T198 608t-41.5-15.5T141 539zM31 532q0 85 43 130.5T198 708t124-45.5T365 532V168q0-85-43-130.5T198-8 74 37.5 31 168zm279 316q0-53-28-84t-85-31-83.5 31T86 848h65q2-29 13.5-38t32.5-9q22 0 34 9t14 38z" horiz-adv-x="396" vert-adv-y="1000"/><glyph glyph-name="uni014F" unicode="ŏ" d="M141 161q0-38 15.5-53.5T198 92t41.5 15.5T255 161v378q0 38-15.5 53.5T198 608t-41.5-15.5T141 539zM31 532q0 85 43 130.5T198 708t124-45.5T365 532V168q0-85-43-130.5T198-8 74 37.5 31 168zm279 316q0-53-28-84t-85-31-83.5 31T86 848h65q2-29 13.5-38t32.5-9q22 0 34 9t14 38z" horiz-adv-x="396" vert-adv-y="1000"/><glyph glyph-name="uni0150" unicode="Ő" d="M141 161q0-38 15.5-53.5T198 92t41.5 15.5T255 161v378q0 38-15.5 53.5T198 608t-41.5-15.5T141 539zM31 532q0 85 43 130.5T198 708t124-45.5T365 532V168q0-85-43-130.5T198-8 74 37.5 31 168zm201 316-83-111H82l50 111zm131 0-84-111h-66l49 111z" horiz-adv-x="396" vert-adv-y="1000"/><glyph glyph-name="uni0151" unicode="ő" d="M141 161q0-38 15.5-53.5T198 92t41.5 15.5T255 161v378q0 38-15.5 53.5T198 608t-41.5-15.5T141 539zM31 532q0 85 43 130.5T198 708t124-45.5T365 532V168q0-85-43-130.5T198-8 74 37.5 31 168zm201 316-83-111H82l50 111zm131 0-84-111h-66l49 111z" horiz-adv-x="396" vert-adv-y="1000"/><glyph glyph-name="uni0152" unicode="Œ" d="M368 405h151V305H368V100h190V0H194Q111 0 70.5 44T30 173v354q0 85 40.5 129T194 700h364V600H368zM258 600h-62q-26 0-41-15t-15-53V168q0-38 15-53t41-15h62z" horiz-adv-x="586" vert-adv-y="1000"/><glyph glyph-name="uni0153" unicode="œ" d="M368 405h151V305H368V100h190V0H194Q111 0 70.5 44T30 173v354q0 85 40.5 129T194 700h364V600H368zM258 600h-62q-26 0-41-15t-15-53V168q0-38 15-53t41-15h62z" horiz-adv-x="586" vert-adv-y="1000"/><glyph glyph-name="uni0154" unicode="Ŕ" d="M270 0q-2 7-4 13t-3.5 15-2 23-.5 35v110q0 49-17 69t-55 20h-38V0H40v700h166q86 0 124.5-40T369 539v-55q0-108-72-142 42-17 57.5-55.5T370 193V85q0-26 2-45.5T382 0zM150 600V385h43q31 0 48.5 16t17.5 58v69q0 38-13.5 55T203 600zm163 248L211 737h-74l68 111z" horiz-adv-x="402" vert-adv-y="1000"/><glyph glyph-name="uni0155" unicode="ŕ" d="M270 0q-2 7-4 13t-3.5 15-2 23-.5 35v110q0 49-17 69t-55 20h-38V0H40v700h166q86 0 124.5-40T369 539v-55q0-108-72-142 42-17 57.5-55.5T370 193V85q0-26 2-45.5T382 0zM150 600V385h43q31 0 48.5 16t17.5 58v69q0 38-13.5 55T203 600zm163 248L211 737h-74l68 111z" horiz-adv-x="402" vert-adv-y="1000"/><glyph glyph-name="uni0156" unicode="Ŗ" d="M270 0q-2 7-4 13t-3.5 15-2 23-.5 35v110q0 49-17 69t-55 20h-38V0H40v700h166q86 0 124.5-40T369 539v-55q0-108-72-142 42-17 57.5-55.5T370 193V85q0-26 2-45.5T382 0zM150 600V385h43q31 0 48.5 16t17.5 58v69q0 38-13.5 55T203 600zm7-725v92h92v-82l-43-64h-39l26 54z" horiz-adv-x="402" vert-adv-y="1000"/><glyph glyph-name="uni0157" unicode="ŗ" d="M270 0q-2 7-4 13t-3.5 15-2 23-.5 35v110q0 49-17 69t-55 20h-38V0H40v700h166q86 0 124.5-40T369 539v-55q0-108-72-142 42-17 57.5-55.5T370 193V85q0-26 2-45.5T382 0zM150 600V385h43q31 0 48.5 16t17.5 58v69q0 38-13.5 55T203 600zm7-725v92h92v-82l-43-64h-39l26 54z" horiz-adv-x="402" vert-adv-y="1000"/><glyph glyph-name="uni0158" unicode="Ř" d="M270 0q-2 7-4 13t-3.5 15-2 23-.5 35v110q0 49-17 69t-55 20h-38V0H40v700h166q86 0 124.5-40T369 539v-55q0-108-72-142 42-17 57.5-55.5T370 193V85q0-26 2-45.5T382 0zM150 600V385h43q31 0 48.5 16t17.5 58v69q0 38-13.5 55T203 600zm0 248 44-56 45 56h94l-89-111h-99L56 848z" horiz-adv-x="402" vert-adv-y="1000"/><glyph glyph-name="uni0159" unicode="ř" d="M270 0q-2 7-4 13t-3.5 15-2 23-.5 35v110q0 49-17 69t-55 20h-38V0H40v700h166q86 0 124.5-40T369 539v-55q0-108-72-142 42-17 57.5-55.5T370 193V85q0-26 2-45.5T382 0zM150 600V385h43q31 0 48.5 16t17.5 58v69q0 38-13.5 55T203 600zm0 248 44-56 45 56h94l-89-111h-99L56 848z" horiz-adv-x="402" vert-adv-y="1000"/><glyph glyph-name="uni015A" unicode="Ś" d="M26 532q0 85 40.5 130.5T188 708t121.5-45.5T350 532v-22H246v29q0 38-14.5 53.5T191 608t-40.5-15.5T136 539q0-36 16-63.5t40-52 51.5-49T295 321t40-66 16-87q0-85-41.5-130.5T187-8 64.5 37.5 23 168v43h104v-50q0-38 15.5-53T184 93t41.5 15 15.5 53q0 36-16 63.5t-40 52-51.5 49T82 379t-40 66-16 87m279 316L203 737h-74l68 111z" horiz-adv-x="374" vert-adv-y="1000"/><glyph glyph-name="uni015B" unicode="ś" d="M26 532q0 85 40.5 130.5T188 708t121.5-45.5T350 532v-22H246v29q0 38-14.5 53.5T191 608t-40.5-15.5T136 539q0-36 16-63.5t40-52 51.5-49T295 321t40-66 16-87q0-85-41.5-130.5T187-8 64.5 37.5 23 168v43h104v-50q0-38 15.5-53T184 93t41.5 15 15.5 53q0 36-16 63.5t-40 52-51.5 49T82 379t-40 66-16 87m279 316L203 737h-74l68 111z" horiz-adv-x="374" vert-adv-y="1000"/><glyph glyph-name="uni015C" unicode="Ŝ" d="M26 532q0 85 40.5 130.5T188 708t121.5-45.5T350 532v-22H246v29q0 38-14.5 53.5T191 608t-40.5-15.5T136 539q0-36 16-63.5t40-52 51.5-49T295 321t40-66 16-87q0-85-41.5-130.5T187-8 64.5 37.5 23 168v43h104v-50q0-38 15.5-53T184 93t41.5 15 15.5 53q0 36-16 63.5t-40 52-51.5 49T82 379t-40 66-16 87m22 205 89 111h99l89-111h-94l-45 55-44-55z" horiz-adv-x="374" vert-adv-y="1000"/><glyph glyph-name="uni015D" unicode="ŝ" d="M26 532q0 85 40.5 130.5T188 708t121.5-45.5T350 532v-22H246v29q0 38-14.5 53.5T191 608t-40.5-15.5T136 539q0-36 16-63.5t40-52 51.5-49T295 321t40-66 16-87q0-85-41.5-130.5T187-8 64.5 37.5 23 168v43h104v-50q0-38 15.5-53T184 93t41.5 15 15.5 53q0 36-16 63.5t-40 52-51.5 49T82 379t-40 66-16 87m22 205 89 111h99l89-111h-94l-45 55-44-55z" horiz-adv-x="374" vert-adv-y="1000"/><glyph glyph-name="uni015E" unicode="Ş" d="M26 532q0 85 40.5 130.5T188 708t121.5-45.5T350 532v-22H246v29q0 38-14.5 53.5T191 608t-40.5-15.5T136 539q0-36 16-63.5t40-52 51.5-49T295 321t40-66 16-87q0-80-37-125T205-7v-32q37 0 55.5-10.5T279-86q0-20-7.5-32t-21-18.5-32-8.5-40.5-2q-41 0-68.5 11.5T82-89v10h74v-8q0-11 7-15.5t15-4.5q25 0 25 24 0 26-36 26h-10v51Q90 2 56.5 47T23 168v43h104v-50q0-38 15.5-53T184 93t41.5 15 15.5 53q0 36-16 63.5t-40 52-51.5 49T82 379t-40 66-16 87" horiz-adv-x="374" vert-adv-y="1000"/><glyph glyph-name="uni015F" unicode="ş" d="M26 532q0 85 40.5 130.5T188 708t121.5-45.5T350 532v-22H246v29q0 38-14.5 53.5T191 608t-40.5-15.5T136 539q0-36 16-63.5t40-52 51.5-49T295 321t40-66 16-87q0-80-37-125T205-7v-32q37 0 55.5-10.5T279-86q0-20-7.5-32t-21-18.5-32-8.5-40.5-2q-41 0-68.5 11.5T82-89v10h74v-8q0-11 7-15.5t15-4.5q25 0 25 24 0 26-36 26h-10v51Q90 2 56.5 47T23 168v43h104v-50q0-38 15.5-53T184 93t41.5 15 15.5 53q0 36-16 63.5t-40 52-51.5 49T82 379t-40 66-16 87" horiz-adv-x="374" vert-adv-y="1000"/><glyph glyph-name="uni0160" unicode="Š" d="M26 532q0 85 40.5 130.5T188 708t121.5-45.5T350 532v-22H246v29q0 38-14.5 53.5T191 608t-40.5-15.5T136 539q0-36 16-63.5t40-52 51.5-49T295 321t40-66 16-87q0-85-41.5-130.5T187-8 64.5 37.5 23 168v43h104v-50q0-38 15.5-53T184 93t41.5 15 15.5 53q0 36-16 63.5t-40 52-51.5 49T82 379t-40 66-16 87m117 316 44-56 45 56h94l-89-111h-99L49 848z" horiz-adv-x="374" vert-adv-y="1000"/><glyph glyph-name="uni0161" unicode="š" d="M26 532q0 85 40.5 130.5T188 708t121.5-45.5T350 532v-22H246v29q0 38-14.5 53.5T191 608t-40.5-15.5T136 539q0-36 16-63.5t40-52 51.5-49T295 321t40-66 16-87q0-85-41.5-130.5T187-8 64.5 37.5 23 168v43h104v-50q0-38 15.5-53T184 93t41.5 15 15.5 53q0 36-16 63.5t-40 52-51.5 49T82 379t-40 66-16 87m116 316 44-56 45 56h94l-89-111h-99L48 848z" horiz-adv-x="374" vert-adv-y="1000"/><glyph glyph-name="uni0162" unicode="Ţ" d="M88-99h64v-10q0-11 6.5-14.5T173-127q26 0 26 26 0 28-36 28h-11V0h-29v600H8v100h340V600H233V0h-31v-39q29 0 46-15.5T265-96q0-45-27-63.5T174-178q-34 0-60 17t-26 52z" horiz-adv-x="356" vert-adv-y="1000"/><glyph glyph-name="uni0163" unicode="ţ" d="M88-99h64v-10q0-11 6.5-14.5T173-127q26 0 26 26 0 28-36 28h-11V0h-29v600H8v100h340V600H233V0h-31v-39q29 0 46-15.5T265-96q0-45-27-63.5T174-178q-34 0-60 17t-26 52z" horiz-adv-x="356" vert-adv-y="1000"/><glyph glyph-name="uni0164" unicode="Ť" d="M8 700h340V600H233V0H123v600H8zm125 148 44-56 45 56h94l-89-111h-99L39 848z" horiz-adv-x="356" vert-adv-y="1000"/><glyph glyph-name="uni0165" unicode="ť" d="M8 700h340V600H233V0H123v600H8zm125 148 44-56 45 56h94l-89-111h-99L39 848z" horiz-adv-x="356" vert-adv-y="1000"/><glyph glyph-name="uni0166" unicode="Ŧ" d="M123 487v113H8v100h340V600H233V487h66v-82h-66V0H123v405H57v82z" horiz-adv-x="356" vert-adv-y="1000"/><glyph glyph-name="uni0167" unicode="ŧ" d="M123 487v113H8v100h340V600H233V487h66v-82h-66V0H123v405H57v82z" horiz-adv-x="356" vert-adv-y="1000"/><glyph glyph-name="uni0168" unicode="Ũ" d="M145 700V160q0-38 15.5-53T202 92t41.5 15 15.5 53v540h104V167q0-85-41.5-130.5T199-9 76.5 36.5 35 167v533zm95 113q14 0 24 5t19 24l53-37q-14-38-36.5-53T251 737q-16 0-27.5 4t-22 8.5-20 8.5-20.5 4q-14 0-24-5t-19-24l-53 37q14 38 36.5 53t48.5 15q16 0 27.5-4t22-8.5 20-8.5 20.5-4" horiz-adv-x="398" vert-adv-y="1000"/><glyph glyph-name="uni0169" unicode="ũ" d="M145 700V160q0-38 15.5-53T202 92t41.5 15 15.5 53v540h104V167q0-85-41.5-130.5T199-9 76.5 36.5 35 167v533zm95 113q14 0 24 5t19 24l53-37q-14-38-36.5-53T251 737q-16 0-27.5 4t-22 8.5-20 8.5-20.5 4q-14 0-24-5t-19-24l-53 37q14 38 36.5 53t48.5 15q16 0 27.5-4t22-8.5 20-8.5 20.5-4" horiz-adv-x="398" vert-adv-y="1000"/><glyph glyph-name="uni016A" unicode="Ū" d="M145 700V160q0-38 15.5-53T202 92t41.5 15 15.5 53v540h104V167q0-85-41.5-130.5T199-9 76.5 36.5 35 167v533zm170 119v-78H85v78z" horiz-adv-x="398" vert-adv-y="1000"/><glyph glyph-name="uni016B" unicode="ū" d="M145 700V160q0-38 15.5-53T202 92t41.5 15 15.5 53v540h104V167q0-85-41.5-130.5T199-9 76.5 36.5 35 167v533zm170 119v-78H85v78z" horiz-adv-x="398" vert-adv-y="1000"/><glyph glyph-name="uni016C" unicode="Ŭ" d="M145 700V160q0-38 15.5-53T202 92t41.5 15 15.5 53v540h104V167q0-85-41.5-130.5T199-9 76.5 36.5 35 167v533zm167 148q0-53-28-84t-85-31-83.5 31T88 848h65q2-29 13.5-38t32.5-9q22 0 34 9t14 38z" horiz-adv-x="398" vert-adv-y="1000"/><glyph glyph-name="uni016D" unicode="ŭ" d="M145 700V160q0-38 15.5-53T202 92t41.5 15 15.5 53v540h104V167q0-85-41.5-130.5T199-9 76.5 36.5 35 167v533zm167 148q0-53-28-84t-85-31-83.5 31T88 848h65q2-29 13.5-38t32.5-9q22 0 34 9t14 38z" horiz-adv-x="398" vert-adv-y="1000"/><glyph glyph-name="uni016E" unicode="Ů" d="M145 700V160q0-38 15.5-53T202 92t41.5 15 15.5 53v540h104V167q0-85-41.5-130.5T199-9 76.5 36.5 35 167v533zm-25 114q0 34 23 57t57 23 57-23 23-57-23-57-57-23-57 23-23 57m50 0q0-13 8.5-21.5T200 784t21.5 8.5T230 814t-8.5 21.5T200 844t-21.5-8.5T170 814" horiz-adv-x="398" vert-adv-y="1000"/><glyph glyph-name="uni016F" unicode="ů" d="M145 700V160q0-38 15.5-53T202 92t41.5 15 15.5 53v540h104V167q0-85-41.5-130.5T199-9 76.5 36.5 35 167v533zm-25 114q0 34 23 57t57 23 57-23 23-57-23-57-57-23-57 23-23 57m50 0q0-13 8.5-21.5T200 784t21.5 8.5T230 814t-8.5 21.5T200 844t-21.5-8.5T170 814" horiz-adv-x="398" vert-adv-y="1000"/><glyph glyph-name="uni0170" unicode="Ű" d="M145 700V160q0-38 15.5-53T202 92t41.5 15 15.5 53v540h104V167q0-85-41.5-130.5T199-9 76.5 36.5 35 167v533zm89 148-83-111H84l50 111zm131 0-84-111h-66l49 111z" horiz-adv-x="398" vert-adv-y="1000"/><glyph glyph-name="uni0171" unicode="ű" d="M145 700V160q0-38 15.5-53T202 92t41.5 15 15.5 53v540h104V167q0-85-41.5-130.5T199-9 76.5 36.5 35 167v533zm89 148-83-111H84l50 111zm131 0-84-111h-66l49 111z" horiz-adv-x="398" vert-adv-y="1000"/><glyph glyph-name="uni0172" unicode="Ų" d="M145 700V160q0-38 15.5-53T202 92t41.5 15 15.5 53v540h104V167q0-44-11.5-86T300 8q-21-17-27.5-36T266-58q0-14 10.5-21t24.5-7q15 0 21.5 2t14.5 4v-56q-17-7-32-9t-36-2q-40 0-63.5 15.5T182-85q0 46 58 80-17-4-41-4-81 0-122.5 45.5T35 167v533z" horiz-adv-x="398" vert-adv-y="1000"/><glyph glyph-name="uni0173" unicode="ų" d="M145 700V160q0-38 15.5-53T202 92t41.5 15 15.5 53v540h104V167q0-44-11.5-86T300 8q-21-17-27.5-36T266-58q0-14 10.5-21t24.5-7q15 0 21.5 2t14.5 4v-56q-17-7-32-9t-36-2q-40 0-63.5 15.5T182-85q0 46 58 80-17-4-41-4-81 0-122.5 45.5T35 167v533z" horiz-adv-x="398" vert-adv-y="1000"/><glyph glyph-name="uni0174" unicode="Ŵ" d="M284 373 244 0H93L15 700h107l59-552 53 552h106l55-556 57 556h96L470 0H324zM143 737l89 111h99l89-111h-94l-45 55-44-55z" horiz-adv-x="563" vert-adv-y="1000"/><glyph glyph-name="uni0175" unicode="ŵ" d="M284 373 244 0H93L15 700h107l59-552 53 552h106l55-556 57 556h96L470 0H324zM143 737l89 111h99l89-111h-94l-45 55-44-55z" horiz-adv-x="563" vert-adv-y="1000"/><glyph glyph-name="uni0176" unicode="Ŷ" d="M143 232 4 700h115l84-319 84 319h105L253 232V0H143zM64 737l89 111h99l89-111h-94l-45 55-44-55z" horiz-adv-x="396" vert-adv-y="1000"/><glyph glyph-name="uni0177" unicode="ŷ" d="M143 232 4 700h115l84-319 84 319h105L253 232V0H143zM64 737l89 111h99l89-111h-94l-45 55-44-55z" horiz-adv-x="396" vert-adv-y="1000"/><glyph glyph-name="uni0178" unicode="Ÿ" d="M143 232 4 700h115l84-319 84 319h105L253 232V0H143zm31 601v-96H78v96zm152 0v-96h-96v96z" horiz-adv-x="396" vert-adv-y="1000"/><glyph glyph-name="uni0179" unicode="Ź" d="M345 700v-98L136 100h209V0H23v98l209 502H33v100zm-41 148L202 737h-74l68 111z" horiz-adv-x="370" vert-adv-y="1000"/><glyph glyph-name="uni017A" unicode="ź" d="M345 700v-98L136 100h209V0H23v98l209 502H33v100zm-41 148L202 737h-74l68 111z" horiz-adv-x="370" vert-adv-y="1000"/><glyph glyph-name="uni017B" unicode="Ż" d="M345 700v-98L136 100h209V0H23v98l209 502H33v100zM234 833v-96h-96v96z" horiz-adv-x="370" vert-adv-y="1000"/><glyph glyph-name="uni017C" unicode="ż" d="M345 700v-98L136 100h209V0H23v98l209 502H33v100zM234 833v-96h-96v96z" horiz-adv-x="370" vert-adv-y="1000"/><glyph glyph-name="uni017D" unicode="Ž" d="M345 700v-98L136 100h209V0H23v98l209 502H33v100zM142 848l44-56 45 56h94l-89-111h-99L48 848z" horiz-adv-x="370" vert-adv-y="1000"/><glyph glyph-name="uni017E" unicode="ž" d="M345 700v-98L136 100h209V0H23v98l209 502H33v100zM142 848l44-56 45 56h94l-89-111h-99L48 848z" horiz-adv-x="370" vert-adv-y="1000"/><glyph glyph-name="uni01FC" unicode="Ǽ" d="M252 127H141L109 0H4l187 700h361V600H362V405h151V305H362V100h190V0H252zm0 95v337l-86-337zm156 626L306 737h-74l68 111z" horiz-adv-x="580" vert-adv-y="1000"/><glyph glyph-name="uni01FD" unicode="ǽ" d="M252 127H141L109 0H4l187 700h361V600H362V405h151V305H362V100h190V0H252zm0 95v337l-86-337zm156 626L306 737h-74l68 111z" horiz-adv-x="580" vert-adv-y="1000"/><glyph glyph-name="uni01FE" unicode="Ǿ" d="M31 532q0 85 43 130.5T198 708q60 0 100-26l20 55 37-13-26-71q36-44 36-121V168q0-85-43-130.5T198-8Q136-8 98 17L78-37 41-24l25 70Q31 92 31 168zm110-281 112 309q-4 26-18.5 37T198 608q-26 0-41.5-15.5T141 539zm57-159q26 0 41.5 15.5T255 161v288L142 140q5-26 19-37t37-11m118 756L214 737h-74l68 111z" horiz-adv-x="396" vert-adv-y="1000"/><glyph glyph-name="uni01FF" unicode="ǿ" d="M31 532q0 85 43 130.5T198 708q60 0 100-26l20 55 37-13-26-71q36-44 36-121V168q0-85-43-130.5T198-8Q136-8 98 17L78-37 41-24l25 70Q31 92 31 168zm110-281 112 309q-4 26-18.5 37T198 608q-26 0-41.5-15.5T141 539zm57-159q26 0 41.5 15.5T255 161v288L142 140q5-26 19-37t37-11m118 756L214 737h-74l68 111z" horiz-adv-x="396" vert-adv-y="1000"/><glyph glyph-name="uni0218" unicode="Ș" d="M138-125v92h92v-82l-43-64h-39l26 54zM26 532q0 85 40.5 130.5T188 708t121.5-45.5T350 532v-22H246v29q0 38-14.5 53.5T191 608t-40.5-15.5T136 539q0-36 16-63.5t40-52 51.5-49T295 321t40-66 16-87q0-85-41.5-130.5T187-8 64.5 37.5 23 168v43h104v-50q0-38 15.5-53T184 93t41.5 15 15.5 53q0 36-16 63.5t-40 52-51.5 49T82 379t-40 66-16 87" horiz-adv-x="374" vert-adv-y="1000"/><glyph glyph-name="uni0219" unicode="ș" d="M138-125v92h92v-82l-43-64h-39l26 54zM26 532q0 85 40.5 130.5T188 708t121.5-45.5T350 532v-22H246v29q0 38-14.5 53.5T191 608t-40.5-15.5T136 539q0-36 16-63.5t40-52 51.5-49T295 321t40-66 16-87q0-85-41.5-130.5T187-8 64.5 37.5 23 168v43h104v-50q0-38 15.5-53T184 93t41.5 15 15.5 53q0 36-16 63.5t-40 52-51.5 49T82 379t-40 66-16 87" horiz-adv-x="374" vert-adv-y="1000"/><glyph glyph-name="uni021A" unicode="Ț" d="M8 700h340V600H233V0H123v600H8zm124-825v92h92v-82l-43-64h-39l26 54z" horiz-adv-x="356" vert-adv-y="1000"/><glyph glyph-name="uni021B" unicode="ț" d="M8 700h340V600H233V0H123v600H8zm124-825v92h92v-82l-43-64h-39l26 54z" horiz-adv-x="356" vert-adv-y="1000"/><glyph glyph-name="uni0237" unicode="ȷ" d="M10 100q9-1 19-1h19q26 0 44.5 13t18.5 54v534h110V174q0-53-13-87t-35-53.5T122.5 6 63-2H36Q24-2 10 0z" horiz-adv-x="256" vert-adv-y="1000"/><glyph glyph-name="uni02BC" unicode="ʼ" d="M40 594v106h106v-95L98 494H53l29 100z" horiz-adv-x="186" vert-adv-y="1000"/><glyph glyph-name="uni02C6" unicode="ˆ" d="m-13 737 89 111h99l89-111h-94l-45 55-44-55z" horiz-adv-x="250" vert-adv-y="1000"/><glyph glyph-name="uni02C7" unicode="ˇ" d="m81 848 44-56 45 56h94l-89-111H76l-89 111z" horiz-adv-x="250" vert-adv-y="1000"/><glyph glyph-name="uni02D8" unicode="˘" d="M237 848q0-53-28-84t-85-31-83.5 31T13 848h65q2-29 13.5-38t32.5-9q22 0 34 9t14 38z" horiz-adv-x="250" vert-adv-y="1000"/><glyph glyph-name="uni02D9" unicode="˙" d="M173 833v-96H77v96z" horiz-adv-x="250" vert-adv-y="1000"/><glyph glyph-name="uni02DA" unicode="˚" d="M45 814q0 34 23 57t57 23 57-23 23-57-23-57-57-23-57 23-23 57m50 0q0-13 8.5-21.5T125 784t21.5 8.5T155 814t-8.5 21.5T125 844t-21.5-8.5T95 814" horiz-adv-x="250" vert-adv-y="1000"/><glyph glyph-name="uni02DB" unicode="˛" d="M166 4q-22-17-28.5-34T131-58q0-14 10.5-21t24.5-7q15 0 21.5 2t14.5 4v-56q-17-7-32-9t-36-2q-40 0-63.5 15.5T47-85q0 53 76 89z" horiz-adv-x="250" vert-adv-y="1000"/><glyph glyph-name="uni02DC" unicode="˜" d="M165 813q14 0 24 5t19 24l53-37q-14-38-36.5-53T176 737q-16 0-27.5 4t-22 8.5-20 8.5-20.5 4q-14 0-24-5t-19-24l-53 37q14 38 36.5 53T75 838q16 0 27.5-4t22-8.5 20-8.5 20.5-4" horiz-adv-x="250" vert-adv-y="1000"/><glyph glyph-name="uni02DD" unicode="˝" d="M125 848 42 737h-67l50 111zm131 0-84-111h-66l49 111z" horiz-adv-x="250" vert-adv-y="1000"/><glyph glyph-name="uni1E02" unicode="Ḃ" d="M206 700q86 0 124.5-40T369 539v-25q0-54-17-89t-54-52q45-17 63.5-55.5T380 223v-57q0-81-42-123.5T213 0H40v700zm-56-385V100h63q28 0 42.5 15t14.5 54v61q0 49-16.5 67T199 315zm0 285V415h43q31 0 48.5 16t17.5 58v39q0 38-13.5 55T203 600zm84 233v-96h-96v96z" horiz-adv-x="406" vert-adv-y="1000"/><glyph glyph-name="uni1E03" unicode="ḃ" d="M206 700q86 0 124.5-40T369 539v-25q0-54-17-89t-54-52q45-17 63.5-55.5T380 223v-57q0-81-42-123.5T213 0H40v700zm-56-385V100h63q28 0 42.5 15t14.5 54v61q0 49-16.5 67T199 315zm0 285V415h43q31 0 48.5 16t17.5 58v39q0 38-13.5 55T203 600zm84 233v-96h-96v96z" horiz-adv-x="406" vert-adv-y="1000"/><glyph glyph-name="uni1E0A" unicode="Ḋ" d="M40 700h174q83 0 123.5-44T378 527V173q0-85-40.5-129T214 0H40zm110-100V100h62q26 0 41 15t15 53v364q0 38-15 53t-41 15zm92 233v-96h-96v96z" horiz-adv-x="408" vert-adv-y="1000"/><glyph glyph-name="uni1E0B" unicode="ḋ" d="M40 700h174q83 0 123.5-44T378 527V173q0-85-40.5-129T214 0H40zm110-100V100h62q26 0 41 15t15 53v364q0 38-15 53t-41 15zm92 233v-96h-96v96z" horiz-adv-x="408" vert-adv-y="1000"/><glyph glyph-name="uni1E1E" unicode="Ḟ" d="M150 389h142V289H150V0H40v700h291V600H150zm80 444v-96h-96v96z" horiz-adv-x="344" vert-adv-y="1000"/><glyph glyph-name="uni1E1F" unicode="ḟ" d="M150 389h142V289H150V0H40v700h291V600H150zm80 444v-96h-96v96z" horiz-adv-x="344" vert-adv-y="1000"/><glyph glyph-name="uni1E40" unicode="Ṁ" d="m273 203 75 497h153V0H397v502L321 0H217l-82 495V0H39v700h153zm45 630v-96h-96v96z" horiz-adv-x="541" vert-adv-y="1000"/><glyph glyph-name="uni1E41" unicode="ṁ" d="m273 203 75 497h153V0H397v502L321 0H217l-82 495V0H39v700h153zm45 630v-96h-96v96z" horiz-adv-x="541" vert-adv-y="1000"/><glyph glyph-name="uni1E56" unicode="Ṗ" d="M202 700q83 0 123.5-44T366 527v-91q0-85-40.5-129T202 263h-52V0H40v700zm-52-100V363h52q26 0 40 14t14 52v105q0 38-14 52t-40 14zm88 233v-96h-96v96z" horiz-adv-x="377" vert-adv-y="1000"/><glyph glyph-name="uni1E57" unicode="ṗ" d="M202 700q83 0 123.5-44T366 527v-91q0-85-40.5-129T202 263h-52V0H40v700zm-52-100V363h52q26 0 40 14t14 52v105q0 38-14 52t-40 14zm88 233v-96h-96v96z" horiz-adv-x="377" vert-adv-y="1000"/><glyph glyph-name="uni1E60" unicode="Ṡ" d="M26 532q0 85 40.5 130.5T188 708t121.5-45.5T350 532v-22H246v29q0 38-14.5 53.5T191 608t-40.5-15.5T136 539q0-36 16-63.5t40-52 51.5-49T295 321t40-66 16-87q0-85-41.5-130.5T187-8 64.5 37.5 23 168v43h104v-50q0-38 15.5-53T184 93t41.5 15 15.5 53q0 36-16 63.5t-40 52-51.5 49T82 379t-40 66-16 87m209 301v-96h-96v96z" horiz-adv-x="374" vert-adv-y="1000"/><glyph glyph-name="uni1E61" unicode="ṡ" d="M26 532q0 85 40.5 130.5T188 708t121.5-45.5T350 532v-22H246v29q0 38-14.5 53.5T191 608t-40.5-15.5T136 539q0-36 16-63.5t40-52 51.5-49T295 321t40-66 16-87q0-85-41.5-130.5T187-8 64.5 37.5 23 168v43h104v-50q0-38 15.5-53T184 93t41.5 15 15.5 53q0 36-16 63.5t-40 52-51.5 49T82 379t-40 66-16 87m209 301v-96h-96v96z" horiz-adv-x="374" vert-adv-y="1000"/><glyph glyph-name="uni1E6A" unicode="Ṫ" d="M8 700h340V600H233V0H123v600H8zm218 133v-96h-96v96z" horiz-adv-x="356" vert-adv-y="1000"/><glyph glyph-name="uni1E6B" unicode="ṫ" d="M8 700h340V600H233V0H123v600H8zm218 133v-96h-96v96z" horiz-adv-x="356" vert-adv-y="1000"/><glyph glyph-name="uni1E80" unicode="Ẁ" d="M284 373 244 0H93L15 700h107l59-552 53 552h106l55-556 57 556h96L470 0H324zm-10 475 68-111h-79L161 848z" horiz-adv-x="563" vert-adv-y="1000"/><glyph glyph-name="uni1E81" unicode="ẁ" d="M284 373 244 0H93L15 700h107l59-552 53 552h106l55-556 57 556h96L470 0H324zm-10 475 68-111h-79L161 848z" horiz-adv-x="563" vert-adv-y="1000"/><glyph glyph-name="uni1E82" unicode="Ẃ" d="M284 373 244 0H93L15 700h107l59-552 53 552h106l55-556 57 556h96L470 0H324zm115 475L297 737h-74l68 111z" horiz-adv-x="563" vert-adv-y="1000"/><glyph glyph-name="uni1E83" unicode="ẃ" d="M284 373 244 0H93L15 700h107l59-552 53 552h106l55-556 57 556h96L470 0H324zm115 475L297 737h-74l68 111z" horiz-adv-x="563" vert-adv-y="1000"/><glyph glyph-name="uni1E84" unicode="Ẅ" d="M284 373 244 0H93L15 700h107l59-552 53 552h106l55-556 57 556h96L470 0H324zm-31 460v-96h-96v96zm152 0v-96h-96v96z" horiz-adv-x="563" vert-adv-y="1000"/><glyph glyph-name="uni1E85" unicode="ẅ" d="M284 373 244 0H93L15 700h107l59-552 53 552h106l55-556 57 556h96L470 0H324zm-31 460v-96h-96v96zm152 0v-96h-96v96z" horiz-adv-x="563" vert-adv-y="1000"/><glyph glyph-name="uni1EF2" unicode="Ỳ" d="M143 232 4 700h115l84-319 84 319h105L253 232V0H143zm52 616 68-111h-79L82 848z" horiz-adv-x="396" vert-adv-y="1000"/><glyph glyph-name="uni1EF3" unicode="ỳ" d="M143 232 4 700h115l84-319 84 319h105L253 232V0H143zm52 616 68-111h-79L82 848z" horiz-adv-x="396" vert-adv-y="1000"/><glyph glyph-name="uni2012" unicode="‒" d="M0 395h396v-90H0z" horiz-adv-x="396" vert-adv-y="1000"/><glyph glyph-name="uni2013" unicode="–" d="M0 395h500v-90H0z" horiz-adv-x="500" vert-adv-y="1000"/><glyph glyph-name="uni2014" unicode="—" d="M0 395h1000v-90H0z" horiz-adv-x="1000" vert-adv-y="1000"/><glyph glyph-name="uni2018" unicode="‘" d="M146 600V494H40v95l48 111h45l-29-100z" horiz-adv-x="186" vert-adv-y="1000"/><glyph glyph-name="uni2019" unicode="’" d="M40 594v106h106v-95L98 494H53l29 100z" horiz-adv-x="186" vert-adv-y="1000"/><glyph glyph-name="uni201A" unicode="‚" d="M40 0v106h106V11L98-100H53L82 0z" horiz-adv-x="186" vert-adv-y="1000"/><glyph glyph-name="uni201C" unicode="“" d="M146 600V494H40v95l48 111h45l-29-100zm146 0V494H186v95l48 111h45l-29-100z" horiz-adv-x="332" vert-adv-y="1000"/><glyph glyph-name="uni201D" unicode="”" d="M40 594v106h106v-95L98 494H53l29 100zm146 0v106h106v-95l-48-111h-45l29 100z" horiz-adv-x="332" vert-adv-y="1000"/><glyph glyph-name="uni201E" unicode="„" d="M40 0v106h106V11L98-100H53L82 0zm146 0v106h106V11l-48-111h-45L228 0z" horiz-adv-x="332" vert-adv-y="1000"/><glyph glyph-name="uni2020" unicode="†" d="M25 525h128v175h90V525h128v-85H243V-65h-90v505H25z" horiz-adv-x="396" vert-adv-y="1000"/><glyph glyph-name="uni2021" unicode="‡" d="M25 525h128v175h90V525h128v-85H243V195h128v-85H243V-65h-90v175H25v85h128v245H25z" horiz-adv-x="396" vert-adv-y="1000"/><glyph glyph-name="uni2022" unicode="•" d="M59 350q0 29 11 54.5t29.5 44 44 29.5 54.5 11 54.5-11 44-29.5 29.5-44 11-54.5-11-54.5-29.5-44-44-29.5-54.5-11-54.5 11-44 29.5-29.5 44T59 350" horiz-adv-x="396" vert-adv-y="1000"/><glyph glyph-name="uni2026" unicode="…" d="M146 106V0H40v106zm146 0V0H186v106zm146 0V0H332v106z" horiz-adv-x="478" vert-adv-y="1000"/><glyph glyph-name="uni2030" unicode="‰" d="M104 358q0-44 36-44 17 0 26.5 10.5T176 358v240q0 23-9.5 33.5T140 642q-36 0-36-44zM34 593q0 54 27 83t79 29 79-29 27-83V363q0-54-27-83t-79-29-79 29-27 83zm382 107h65L205 0h-65zm35-598q0-44 36-44 17 0 26.5 10.5T523 102v240q0 23-9.5 33.5T487 386q-36 0-36-44zm-70 235q0 54 27 83t79 29 79-29 27-83V107q0-54-27-83T487-5t-79 29-27 83zm326-235q0-44 36-44 17 0 26.5 10.5T779 102v240q0 23-9.5 33.5T743 386q-36 0-36-44zm-70 235q0 54 27 83t79 29 79-29 27-83V107q0-54-27-83T743-5t-79 29-27 83z" horiz-adv-x="883" vert-adv-y="1000"/><glyph glyph-name="uni2039" unicode="‹" d="m180 617-59-266 59-282H76L16 351l60 266z" horiz-adv-x="196" vert-adv-y="1000"/><glyph glyph-name="uni203A" unicode="›" d="m120 617 60-266-60-282H16l59 282-59 266z" horiz-adv-x="196" vert-adv-y="1000"/><glyph glyph-name="uni2044" unicode="⁄" d="M139 700h65L-72 0h-65z" horiz-adv-x="67" vert-adv-y="1000"/><glyph glyph-name="uni2070" unicode="⁰" d="M104 453q0-44 36-44 17 0 26.5 10.5T176 453v240q0 23-9.5 33.5T140 737q-36 0-36-44zM34 688q0 54 27 83t79 29 79-29 27-83V458q0-54-27-83t-79-29-79 29-27 83z" horiz-adv-x="280" vert-adv-y="1000"/><glyph glyph-name="uni2074" unicode="⁴" d="m24 495 127 300h76V495h33v-64h-33v-80h-69v80H24zm134 0v164L87 495z" horiz-adv-x="280" vert-adv-y="1000"/><glyph glyph-name="uni2075" unicode="⁵" d="M103 493v-41q0-24 9.5-33.5T139 409t26.5 9.5T175 452v97q0 24-9.5 34T139 593t-26.5-10-9.5-34v-13H37l13 258h184v-64H112l-5-106q19 33 61 33 38 0 57.5-26.5T245 555v-99q0-54-26-83t-78-29-78 29-26 83v37z" horiz-adv-x="280" vert-adv-y="1000"/><glyph glyph-name="uni2076" unicode="⁶" d="M36 685q0 56 26 85.5t81 29.5q51 0 77.5-29t26.5-83v-11h-66v16q0 24-9.5 34T145 737q-19 0-29-11.5T106 682v-81q19 39 65 39 38 0 57.5-26t19.5-75v-81q0-54-27-83t-79-29-79 29-27 83zm106-108q-17 0-26.5-10t-9.5-34v-80q0-24 9.5-33.5T142 410t26.5 9.5T178 453v80q0 24-9.5 34T142 577" horiz-adv-x="280" vert-adv-y="1000"/><glyph glyph-name="uni2077" unicode="⁷" d="M245 795v-61L142 351H72l102 381H35v63z" horiz-adv-x="280" vert-adv-y="1000"/><glyph glyph-name="uni2078" unicode="⁸" d="M249 458q0-54-28-83t-81-29-81 29-28 83v34q0 32 10 56t33 37q-43 24-43 89v14q0 54 28 83t81 29 81-29 28-83v-14q0-65-43-89 23-13 33-37t10-56zm-148 1q0-29 11-39.5t28-10.5 28 10.5 11 39.5v42q0 50-39 50t-39-50zm0 202q0-26 11-36.5t28-10.5 28 10.5 11 36.5v25q0 30-11 40.5T140 737t-28-10.5-11-40.5z" horiz-adv-x="280" vert-adv-y="1000"/><glyph glyph-name="uni2079" unicode="⁹" d="M244 461q0-56-26-85.5T137 346q-51 0-77.5 29T33 458v11h66v-16q0-24 9.5-34t26.5-10q19 0 29 11.5t10 43.5v81q-19-39-65-39-38 0-57.5 26T32 607v81q0 54 27 83t79 29 79-29 27-83zM138 569q17 0 26.5 10t9.5 34v80q0 24-9.5 33.5T138 736t-26.5-9.5T102 693v-80q0-24 9.5-34t26.5-10" horiz-adv-x="280" vert-adv-y="1000"/><glyph glyph-name="uni2080" unicode="₀" d="M104 37q0-44 36-44 17 0 26.5 10.5T176 37v240q0 23-9.5 33.5T140 321q-36 0-36-44zM34 272q0 54 27 83t79 29 79-29 27-83V42q0-54-27-83t-79-29-79 29-27 83z" horiz-adv-x="280" vert-adv-y="1000"/><glyph glyph-name="uni2081" unicode="₁" d="M25 323q20 0 33 4.5t21.5 12 13.5 18 10 21.5h46V-65H79v339H25z" horiz-adv-x="200" vert-adv-y="1000"/><glyph glyph-name="uni2082" unicode="₂" d="M180 272q0 29-9.5 39.5T144 322t-26.5-10-9.5-34v-47H42v43q0 54 26 82.5t78 28.5 78-28.5 26-82.5q0-36-11-65.5T211.5 155 176 110.5t-34.5-39T117 35t-5-37h132v-63H42v54q0 32 10 57t25.5 45.5T111 131t33.5 39.5 25.5 45 10 56.5" horiz-adv-x="280" vert-adv-y="1000"/><glyph glyph-name="uni2083" unicode="₃" d="M174 78q0 32-11 44t-34 12h-24v63h27q20 0 31 11t11 37v25q0 30-9.5 40.5T138 321t-26.5-10.5T102 277v-28H36v23q0 54 26 83t78 29 78-29 26-83v-11q0-71-49-91 26-11 37.5-35T244 77V42q0-54-26-83t-78-29-78 29-26 83v36h66V37q0-23 9.5-33.5T138-7t26.5 10.5T174 44z" horiz-adv-x="280" vert-adv-y="1000"/><glyph glyph-name="uni2084" unicode="₄" d="m24 79 127 300h76V79h33V15h-33v-80h-69v80H24zm134 0v164L87 79z" horiz-adv-x="280" vert-adv-y="1000"/><glyph glyph-name="uni2085" unicode="₅" d="M103 77V36q0-24 9.5-33.5T139-7t26.5 9.5T175 36v97q0 24-9.5 34T139 177t-26.5-10-9.5-34v-13H37l13 258h184v-64H112l-5-106q19 33 61 33 38 0 57.5-26.5T245 139V40q0-54-26-83t-78-29-78 29-26 83v37z" horiz-adv-x="280" vert-adv-y="1000"/><glyph glyph-name="uni2086" unicode="₆" d="M36 269q0 56 26 85.5t81 29.5q51 0 77.5-29t26.5-83v-11h-66v16q0 24-9.5 34T145 321q-19 0-29-11.5T106 266v-81q19 39 65 39 38 0 57.5-26t19.5-75V42q0-54-27-83t-79-29-79 29-27 83zm106-108q-17 0-26.5-10t-9.5-34V37q0-24 9.5-33.5T142-6t26.5 9.5T178 37v80q0 24-9.5 34T142 161" horiz-adv-x="280" vert-adv-y="1000"/><glyph glyph-name="uni2087" unicode="₇" d="M245 379v-61L142-65H72l102 381H35v63z" horiz-adv-x="280" vert-adv-y="1000"/><glyph glyph-name="uni2088" unicode="₈" d="M249 42q0-54-28-83t-81-29-81 29-28 83v34q0 32 10 56t33 37q-43 24-43 89v14q0 54 28 83t81 29 81-29 28-83v-14q0-65-43-89 23-13 33-37t10-56zm-148 1q0-29 11-39.5T140-7t28 10.5T179 43v42q0 50-39 50t-39-50zm0 202q0-26 11-36.5t28-10.5 28 10.5 11 36.5v25q0 30-11 40.5T140 321t-28-10.5-11-40.5z" horiz-adv-x="280" vert-adv-y="1000"/><glyph glyph-name="uni2089" unicode="₉" d="M244 45q0-56-26-85.5T137-70q-51 0-77.5 29T33 42v11h66V37q0-24 9.5-34T135-7q19 0 29 11.5T174 48v81q-19-39-65-39-38 0-57.5 26T32 191v81q0 54 27 83t79 29 79-29 27-83zM138 153q17 0 26.5 10t9.5 34v80q0 24-9.5 33.5T138 320t-26.5-9.5T102 277v-80q0-24 9.5-34t26.5-10" horiz-adv-x="280" vert-adv-y="1000"/><glyph glyph-name="uni20AC" unicode="€" d="M19 435h28v97q0 85 40 130.5T208 708t121-45.5T369 532v-51H265v58q0 38-14 53.5T211 608t-40-15.5-14-53.5V435h154v-55H157v-55h154v-55H157V161q0-38 14-53t40-15 40 15 14 53v63h104v-56q0-85-40-130.5T208-8 87 37.5 47 168v102H19v55h28v55H19z" horiz-adv-x="396" vert-adv-y="1000"/><glyph glyph-name="uni20B9" unicode="₹" d="M202 549q0 38-21 52t-63 14H26v85h344v-85h-84q19-28 25-66h59v-85h-59q-3-36-17-64t-35.5-47.5-50-29.5-60.5-10h-5L376 0H258L26 313v85h92q42 0 63 14t21 52H26v85z" horiz-adv-x="396" vert-adv-y="1000"/><glyph glyph-name="uni2117" unicode="℗" d="M20 350q0 78 26.5 143.5t73 113.5T230 681.5 368 708t138-26.5T616.5 607t73-113.5T716 350t-26.5-143.5-73-113.5T506 18.5 368-8 230 18.5 119.5 93t-73 113.5T20 350m72 0q0-63 21-115.5t58-91 87.5-60T368 62t109.5 21.5 87.5 60 58 91T644 350t-21 115.5-58 91-87.5 60T368 638t-109.5-21.5-87.5-60-58-91T92 350m183 205h116q59 0 86-27.5t27-84.5v-56q0-57-27-84.5T391 275h-40V127h-76zm153-121q0 51-41 51h-36V345h36q41 0 41 51z" horiz-adv-x="736" vert-adv-y="1000"/><glyph glyph-name="uni2122" unicode="™" d="m417 450 47 250h97V344h-66v253l-47-253h-66l-53 251V344h-61v356h97zM10 700h216v-64h-73V344H83v292H10z" horiz-adv-x="586" vert-adv-y="1000"/><glyph glyph-name="uni2153" unicode="⅓" d="M65 644q20 0 33 4.5t21.5 12 13.5 18 10 21.5h46V256h-70v339H65zm456-501q0 32-11 44t-34 12h-24v63h27q20 0 31 11t11 37v25q0 30-9.5 40.5T485 386t-26.5-10.5T449 342v-28h-66v23q0 54 26 83t78 29 78-29 26-83v-11q0-71-49-91 26-11 37.5-35t11.5-58v-35q0-54-26-83T487-5t-78 29-26 83v36h66v-41q0-23 9.5-33.5T485 58t26.5 10.5T521 109zM406 700h65L195 0h-65z" horiz-adv-x="627" vert-adv-y="1000"/><glyph glyph-name="uni2154" unicode="⅔" d="M180 592q0 29-9.5 39.5T144 642t-26.5-10-9.5-34v-47H42v43q0 54 26 82.5t78 28.5 78-28.5 26-82.5q0-37-11-66t-27.5-53-35.5-44.5-34.5-39T117 355t-5-37h132v-63H42v54q0 32 10 57t25.5 45.5T111 451t33.5 39.5 25.5 45 10 56.5m249 108h65L218 0h-65zm92-557q0 32-11 44t-34 12h-24v63h27q20 0 31 11t11 37v25q0 30-9.5 40.5T485 386t-26.5-10.5T449 342v-28h-66v23q0 54 26 83t78 29 78-29 26-83v-11q0-71-49-91 26-11 37.5-35t11.5-58v-35q0-54-26-83T487-5t-78 29-26 83v36h66v-41q0-23 9.5-33.5T485 58t26.5 10.5T521 109z" horiz-adv-x="627" vert-adv-y="1000"/><glyph glyph-name="uni215B" unicode="⅛" d="M65 644q20 0 33 4.5t21.5 12 13.5 18 10 21.5h46V256h-70v339H65zm531-537q0-54-28-83T487-5t-81 29-28 83v34q0 32 10 56t33 37q-43 24-43 89v14q0 54 28 83t81 29 81-29 28-83v-14q0-65-43-89 23-13 33-37t10-56zm-148 1q0-29 11-39.5T487 58t28 10.5 11 39.5v42q0 50-39 50t-39-50zm0 202q0-26 11-36.5t28-10.5 28 10.5 11 36.5v25q0 30-11 40.5T487 386t-28-10.5-11-40.5zm-42 390h65L195 0h-65z" horiz-adv-x="627" vert-adv-y="1000"/><glyph glyph-name="uni215C" unicode="⅜" d="M174 399q0 32-11 44t-34 12h-24v63h27q20 0 31 11t11 37v25q0 30-9.5 40.5T138 642t-26.5-10.5T102 598v-28H36v23q0 54 26 83t78 29 78-29 26-83v-11q0-71-49-91 26-11 37.5-35t11.5-58v-35q0-54-26-83t-78-29-78 29-26 83v36h66v-41q0-23 9.5-33.5T138 314t26.5 10.5T174 365zm245 301h65L208 0h-65zm177-593q0-54-28-83T487-5t-81 29-28 83v34q0 32 10 56t33 37q-43 24-43 89v14q0 54 28 83t81 29 81-29 28-83v-14q0-65-43-89 23-13 33-37t10-56zm-148 1q0-29 11-39.5T487 58t28 10.5 11 39.5v42q0 50-39 50t-39-50zm0 202q0-26 11-36.5t28-10.5 28 10.5 11 36.5v25q0 30-11 40.5T487 386t-28-10.5-11-40.5z" horiz-adv-x="627" vert-adv-y="1000"/><glyph glyph-name="uni215D" unicode="⅝" d="M103 398v-41q0-24 9.5-33.5T139 314t26.5 9.5T175 357v97q0 24-9.5 34T139 498t-26.5-10-9.5-34v-13H37l13 258h184v-64H112l-5-106q19 33 61 33 38 0 57.5-26.5T245 460v-99q0-54-26-83t-78-29-78 29-26 83v37zm316 302h65L208 0h-65zm177-593q0-54-28-83T487-5t-81 29-28 83v34q0 32 10 56t33 37q-43 24-43 89v14q0 54 28 83t81 29 81-29 28-83v-14q0-65-43-89 23-13 33-37t10-56zm-148 1q0-29 11-39.5T487 58t28 10.5 11 39.5v42q0 50-39 50t-39-50zm0 202q0-26 11-36.5t28-10.5 28 10.5 11 36.5v25q0 30-11 40.5T487 386t-28-10.5-11-40.5z" horiz-adv-x="627" vert-adv-y="1000"/><glyph glyph-name="uni215E" unicode="⅞" d="M245 700v-61L142 256H72l102 381H35v63zm144 0h65L178 0h-65zm207-593q0-54-28-83T487-5t-81 29-28 83v34q0 32 10 56t33 37q-43 24-43 89v14q0 54 28 83t81 29 81-29 28-83v-14q0-65-43-89 23-13 33-37t10-56zm-148 1q0-29 11-39.5T487 58t28 10.5 11 39.5v42q0 50-39 50t-39-50zm0 202q0-26 11-36.5t28-10.5 28 10.5 11 36.5v25q0 30-11 40.5T487 386t-28-10.5-11-40.5z" horiz-adv-x="627" vert-adv-y="1000"/><glyph glyph-name="uni2212" unicode="−" d="M371 389v-78H25v78z" horiz-adv-x="396" vert-adv-y="1000"/><glyph glyph-name="uni221E" unicode="∞" d="M180 216q-67 0-104.5 34T38 350t37.5 100T180 484h10q41 0 70.5-11t45.5-40q14 27 42.5 39t69.5 12h12q67 0 103.5-34T570 350t-36.5-100T430 216h-12q-41 0-69.5 12.5T306 267q-16-29-45.5-40T190 216zm1 193q-20 0-33-5t-20.5-13-10-18.5T115 350q0-23 12.5-40t53.5-18h20q36 0 52 16t16 42-16 42.5-52 16.5zm225 0q-20 0-33-5t-20.5-13-10-18.5T340 350q0-23 12.5-40t53.5-18h20q36 0 52 16t16 42-16 42.5-52 16.5z" horiz-adv-x="600" vert-adv-y="1000"/><glyph glyph-name="uni2248" unicode="≈" d="M8 249q18 27 33.5 44T71 320.5 99 335t28 4q20 0 39-9.5t37-21 34.5-21T270 278q17 0 30 12.5t36 44.5l52-54q-36-53-63.5-69.5T269 195q-20 0-39 9.5t-37 21-34.5 21T126 256q-17 0-30-12.5T60 199zm0 166q18 27 33.5 44T71 486.5 99 501t28 4q20 0 39-9.5t37-21 34.5-21T270 444q17 0 30 12.5t36 44.5l52-54q-36-53-63.5-69.5T269 361q-20 0-39 9.5t-37 21-34.5 21T126 422q-17 0-30-12.5T60 365z" horiz-adv-x="396" vert-adv-y="1000"/><glyph glyph-name="uni0401" unicode="Ё" d="M150 405h151V305H150V100h190V0H40v700h300V600H150zm11 428v-96H65v96zm152 0v-96h-96v96z" horiz-adv-x="368" vert-adv-y="1000"/><glyph glyph-name="uni0451" unicode="ё" d="M150 405h151V305H150V100h190V0H40v700h300V600H150zm11 428v-96H65v96zm152 0v-96h-96v96z" horiz-adv-x="368" vert-adv-y="1000"/><glyph glyph-name="uni0410" unicode="А" d="M396 0H285l-19 127H131L112 0H11l112 700h161zM145 222h106l-53 354z" horiz-adv-x="407" vert-adv-y="1000"/><glyph glyph-name="uni0411" unicode="Б" d="M41 0v700h308V600H151V421h64q83 0 124.5-44T381 248v-75q0-85-41.5-129T215 0zm174 100q26 0 41 14t15 52v89q0 38-15 52t-41 14h-64V100z" horiz-adv-x="415" vert-adv-y="1000"/><glyph glyph-name="uni0412" unicode="В" d="M206 700q86 0 124.5-40T369 539v-25q0-54-17-89t-54-52q45-17 63.5-55.5T380 223v-57q0-81-42-123.5T213 0H40v700zm-56-385V100h63q28 0 42.5 15t14.5 54v61q0 49-16.5 67T199 315zm0 285V415h43q31 0 48.5 16t17.5 58v39q0 38-13.5 55T203 600z" horiz-adv-x="406" vert-adv-y="1000"/><glyph glyph-name="uni0413" unicode="Г" d="M41 0v700h290V600H151V0z" horiz-adv-x="365" vert-adv-y="1000"/><glyph glyph-name="uni0414" unicode="Д" d="M358-94V0H123v-94H16V98h43q14 18 19.5 39t7.5 52l25 511h308V98h48V-94zM194 191q-2-40-9.5-60T163 98h144v502h-93z" horiz-adv-x="488" vert-adv-y="1000"/><glyph glyph-name="uni0415" unicode="Е" d="M150 405h151V305H150V100h190V0H40v700h300V600H150z" horiz-adv-x="368" vert-adv-y="1000"/><glyph glyph-name="uni0416" unicode="Ж" d="m357 417 130 283h110L462 416 597 0H484L384 310l-27-53V0H248v257l-27 54L121 0H8l136 413L8 700h110l130-283v283h109z" horiz-adv-x="604" vert-adv-y="1000"/><glyph glyph-name="uni0417" unicode="З" d="M252 528q0 47-15.5 63.5T195 608t-42-15.5-16-53.5v-57H36v52q0 85 40.5 129.5T198 708t122.5-45.5T362 532v-18q0-112-77-144 42-18 59.5-55.5T362 223v-55q0-85-41.5-130.5T198-8 75.5 37.5 34 168v77h104v-84q0-38 15.5-53.5T195 92t41.5 16 15.5 63v55q0 49-17 69t-55 20h-27v100h33q31 0 48.5 16t17.5 58z" horiz-adv-x="396" vert-adv-y="1000"/><glyph glyph-name="uni0418" unicode="И" d="M153 0H40v700h98V257l40 154 90 289h121V0h-99v493l-45-172z" horiz-adv-x="427" vert-adv-y="1000"/><glyph glyph-name="uni0419" unicode="Й" d="M153 0H40v700h98V257l40 154 90 289h121V0h-99v493l-45-172zm180 856q0-51-29-81t-88-30q-58 0-85.5 30T101 856h68q2-28 13.5-37t33.5-9q23 0 35.5 9t14.5 37z" horiz-adv-x="429" vert-adv-y="1000"/><glyph glyph-name="uni041A" unicode="К" d="m184 279-34-64V0H40v700h110V395l144 305h110L251 388 404 0H291z" horiz-adv-x="414" vert-adv-y="1000"/><glyph glyph-name="uni041B" unicode="Л" d="M9 99q19 0 31.5 2t20.5 9.5 11.5 22T77 171l18 529h311V0H294v600h-96l-12-423q-3-96-40.5-137T26-1H9z" horiz-adv-x="450" vert-adv-y="1000"/><glyph glyph-name="uni041C" unicode="М" d="m273 203 75 497h153V0H397v502L321 0H217l-82 495V0H39v700h153z" horiz-adv-x="541" vert-adv-y="1000"/><glyph glyph-name="uni041D" unicode="Н" d="M150 0H40v700h110V400h125v300h112V0H275v300H150z" horiz-adv-x="427" vert-adv-y="1000"/><glyph glyph-name="uni041E" unicode="О" d="M141 161q0-38 15.5-53.5T198 92t41.5 15.5T255 161v378q0 38-15.5 53.5T198 608t-41.5-15.5T141 539zM31 532q0 85 43 130.5T198 708t124-45.5T365 532V168q0-85-43-130.5T198-8 74 37.5 31 168z" horiz-adv-x="396" vert-adv-y="1000"/><glyph glyph-name="uni041F" unicode="П" d="M150 0H40v700h347V0H275v600H150z" horiz-adv-x="427" vert-adv-y="1000"/><glyph glyph-name="uni0420" unicode="Р" d="M202 700q83 0 123.5-44T366 527v-91q0-85-40.5-129T202 263h-52V0H40v700zm-52-100V363h52q26 0 40 14t14 52v105q0 38-14 52t-40 14z" horiz-adv-x="377" vert-adv-y="1000"/><glyph glyph-name="uni0421" unicode="С" d="M359 261v-93q0-85-41.5-130.5T195-8 72.5 37.5 31 168v364q0 85 41.5 130.5T195 708t122.5-45.5T359 532v-68H255v75q0 38-15.5 53.5T198 608t-41.5-15.5T141 539V161q0-38 15.5-53T198 93t41.5 15 15.5 53v100z" horiz-adv-x="386" vert-adv-y="1000"/><glyph glyph-name="uni0422" unicode="Т" d="M8 700h340V600H233V0H123v600H8z" horiz-adv-x="356" vert-adv-y="1000"/><glyph glyph-name="uni0423" unicode="У" d="M284 178q-10-47-24.5-82.5t-39-58-63-32.5T62-1v98q42-3 66 8t31 49l1 6L8 700h109l60-239 34-164 26 163 50 240h115z" horiz-adv-x="408" vert-adv-y="1000"/><glyph glyph-name="uni0424" unicode="Ф" d="M236 79h-41q-83 0-123.5 44T31 252v191q0 85 40.5 129T195 616h41v84h108v-84h41q83 0 123.5-44T549 443V252q0-85-40.5-129T385 79h-41V0H236zm108 440V175h41q26 0 40.5 16t14.5 54v205q0 38-14.5 53.5T385 519zm-108 0h-41q-26 0-40.5-15.5T140 450V245q0-38 14.5-54t40.5-16h41z" horiz-adv-x="583" vert-adv-y="1000"/><glyph glyph-name="uni0425" unicode="Х" d="M407 700 292 360 415 0H299l-90 277L118 0H15l123 360L23 700h114l83-258 85 258z" horiz-adv-x="430" vert-adv-y="1000"/><glyph glyph-name="uni0426" unicode="Ц" d="M40 700h110V100h125v600h112V98h48V-94H328V0H40z" horiz-adv-x="455" vert-adv-y="1000"/><glyph glyph-name="uni0427" unicode="Ч" d="M374 700V0H264v282q-18-20-44.5-29.5T170 243q-68 0-102.5 44.5T33 404v296h110V413q0-35 19-52t45-17 41.5 18.5T264 416v284z" horiz-adv-x="415" vert-adv-y="1000"/><glyph glyph-name="uni0428" unicode="Ш" d="M40 0v700h110V100h95v600h110V100h95v600h110V0z" horiz-adv-x="600" vert-adv-y="1000"/><glyph glyph-name="uni0429" unicode="Щ" d="M560 98h49V-94H502V0H40v700h110V100h95v600h110V100h95v600h110z" horiz-adv-x="629" vert-adv-y="1000"/><glyph glyph-name="uni042A" unicode="Ъ" d="M8 700h189V437h52q83 0 123.5-44T413 264v-91q0-85-40.5-129T249 0H87v600H8zm241-600q26 0 40 14t14 52v105q0 38-14 52t-40 14h-52V100z" horiz-adv-x="439" vert-adv-y="1000"/><glyph glyph-name="uni042B" unicode="Ы" d="M40 0v700h110V437h52q83 0 123.5-44T366 264v-91q0-85-40.5-129T202 0zm162 100q26 0 40 14t14 52v105q0 38-14 52t-40 14h-52V100zM429 0v700h110V0z" horiz-adv-x="579" vert-adv-y="1000"/><glyph glyph-name="uni042C" unicode="Ь" d="M40 0v700h110V437h52q83 0 123.5-44T366 264v-91q0-85-40.5-129T202 0zm162 100q26 0 40 14t14 52v105q0 38-14 52t-40 14h-52V100z" horiz-adv-x="392" vert-adv-y="1000"/><glyph glyph-name="uni042D" unicode="Э" d="M130 251v-90q0-38 15.5-53T187 93t41.5 15 15.5 53v151H143v100h101v127q0 38-15.5 53.5T187 608t-41.5-15.5T130 539v-66H28v59q0 85 40.5 130.5T190 708t122.5-45.5T354 532V168q0-85-41.5-130.5T190-8 67.5 37.5 26 168v83z" horiz-adv-x="386" vert-adv-y="1000"/><glyph glyph-name="uni042E" unicode="Ю" d="M232 300h-82V0H40v700h110V400h82v132q0 85 43 130.5T399 708t124-45.5T566 532V168q0-85-43-130.5T399-8 275 37.5 232 168zm110-139q0-38 15.5-53.5T399 92t41.5 15.5T456 161v378q0 38-15.5 53.5T399 608t-41.5-15.5T342 539z" horiz-adv-x="599" vert-adv-y="1000"/><glyph glyph-name="uni042F" unicode="Я" d="M20 0q8 20 10 39.5T32 85v108q0 55 15.5 93.5T105 342q-72 34-72 142v55q0 81 38.5 121T196 700h166V0H252v285h-38q-38 0-55-20t-17-69V86q0-21-.5-35t-2-23-3.5-15-4-13zm179 600q-29 0-42.5-17T143 528v-69q0-42 17.5-58t48.5-16h43v215z" horiz-adv-x="402" vert-adv-y="1000"/><glyph glyph-name="uni0430" unicode="а" d="M396 0H285l-19 127H131L112 0H11l112 700h161zM145 222h106l-53 354z" horiz-adv-x="407" vert-adv-y="1000"/><glyph glyph-name="uni0431" unicode="б" d="M41 0v700h308V600H151V421h64q83 0 124.5-44T381 248v-75q0-85-41.5-129T215 0zm174 100q26 0 41 14t15 52v89q0 38-15 52t-41 14h-64V100z" horiz-adv-x="415" vert-adv-y="1000"/><glyph glyph-name="uni0432" unicode="в" d="M206 700q86 0 124.5-40T369 539v-25q0-54-17-89t-54-52q45-17 63.5-55.5T380 223v-57q0-81-42-123.5T213 0H40v700zm-56-385V100h63q28 0 42.5 15t14.5 54v61q0 49-16.5 67T199 315zm0 285V415h43q31 0 48.5 16t17.5 58v39q0 38-13.5 55T203 600z" horiz-adv-x="406" vert-adv-y="1000"/><glyph glyph-name="uni0433" unicode="г" d="M41 0v700h290V600H151V0z" horiz-adv-x="365" vert-adv-y="1000"/><glyph glyph-name="uni0434" unicode="д" d="M358-94V0H123v-94H16V98h43q14 18 19.5 39t7.5 52l25 511h308V98h48V-94zM194 191q-2-40-9.5-60T163 98h144v502h-93z" horiz-adv-x="488" vert-adv-y="1000"/><glyph glyph-name="uni0435" unicode="е" d="M150 405h151V305H150V100h190V0H40v700h300V600H150z" horiz-adv-x="368" vert-adv-y="1000"/><glyph glyph-name="uni0436" unicode="ж" d="m357 417 130 283h110L462 416 597 0H484L384 310l-27-53V0H248v257l-27 54L121 0H8l136 413L8 700h110l130-283v283h109z" horiz-adv-x="604" vert-adv-y="1000"/><glyph glyph-name="uni0437" unicode="з" d="M252 528q0 47-15.5 63.5T195 608t-42-15.5-16-53.5v-57H36v52q0 85 40.5 129.5T198 708t122.5-45.5T362 532v-18q0-112-77-144 42-18 59.5-55.5T362 223v-55q0-85-41.5-130.5T198-8 75.5 37.5 34 168v77h104v-84q0-38 15.5-53.5T195 92t41.5 16 15.5 63v55q0 49-17 69t-55 20h-27v100h33q31 0 48.5 16t17.5 58z" horiz-adv-x="396" vert-adv-y="1000"/><glyph glyph-name="uni0438" unicode="и" d="M153 0H40v700h98V257l40 154 90 289h121V0h-99v493l-45-172z" horiz-adv-x="427" vert-adv-y="1000"/><glyph glyph-name="uni0439" unicode="й" d="M153 0H40v700h98V257l40 154 90 289h121V0h-99v493l-45-172zm180 856q0-51-29-81t-88-30q-58 0-85.5 30T101 856h68q2-28 13.5-37t33.5-9q23 0 35.5 9t14.5 37z" horiz-adv-x="429" vert-adv-y="1000"/><glyph glyph-name="uni043A" unicode="к" d="m184 279-34-64V0H40v700h110V395l144 305h110L251 388 404 0H291z" horiz-adv-x="414" vert-adv-y="1000"/><glyph glyph-name="uni043B" unicode="л" d="M9 99q19 0 31.5 2t20.5 9.5 11.5 22T77 171l18 529h311V0H294v600h-96l-12-423q-3-96-40.5-137T26-1H9z" horiz-adv-x="450" vert-adv-y="1000"/><glyph glyph-name="uni043C" unicode="м" d="m273 203 75 497h153V0H397v502L321 0H217l-82 495V0H39v700h153z" horiz-adv-x="541" vert-adv-y="1000"/><glyph glyph-name="uni043D" unicode="н" d="M150 0H40v700h110V400h125v300h112V0H275v300H150z" horiz-adv-x="427" vert-adv-y="1000"/><glyph glyph-name="uni043E" unicode="о" d="M141 161q0-38 15.5-53.5T198 92t41.5 15.5T255 161v378q0 38-15.5 53.5T198 608t-41.5-15.5T141 539zM31 532q0 85 43 130.5T198 708t124-45.5T365 532V168q0-85-43-130.5T198-8 74 37.5 31 168z" horiz-adv-x="396" vert-adv-y="1000"/><glyph glyph-name="uni043F" unicode="п" d="M150 0H40v700h347V0H275v600H150z" horiz-adv-x="427" vert-adv-y="1000"/><glyph glyph-name="uni0440" unicode="р" d="M202 700q83 0 123.5-44T366 527v-91q0-85-40.5-129T202 263h-52V0H40v700zm-52-100V363h52q26 0 40 14t14 52v105q0 38-14 52t-40 14z" horiz-adv-x="377" vert-adv-y="1000"/><glyph glyph-name="uni0441" unicode="с" d="M359 261v-93q0-85-41.5-130.5T195-8 72.5 37.5 31 168v364q0 85 41.5 130.5T195 708t122.5-45.5T359 532v-68H255v75q0 38-15.5 53.5T198 608t-41.5-15.5T141 539V161q0-38 15.5-53T198 93t41.5 15 15.5 53v100z" horiz-adv-x="386" vert-adv-y="1000"/><glyph glyph-name="uni0442" unicode="т" d="M8 700h340V600H233V0H123v600H8z" horiz-adv-x="356" vert-adv-y="1000"/><glyph glyph-name="uni0443" unicode="у" d="M284 178q-10-47-24.5-82.5t-39-58-63-32.5T62-1v98q42-3 66 8t31 49l1 6L8 700h109l60-239 34-164 26 163 50 240h115z" horiz-adv-x="408" vert-adv-y="1000"/><glyph glyph-name="uni0444" unicode="ф" d="M236 79h-41q-83 0-123.5 44T31 252v191q0 85 40.5 129T195 616h41v84h108v-84h41q83 0 123.5-44T549 443V252q0-85-40.5-129T385 79h-41V0H236zm108 440V175h41q26 0 40.5 16t14.5 54v205q0 38-14.5 53.5T385 519zm-108 0h-41q-26 0-40.5-15.5T140 450V245q0-38 14.5-54t40.5-16h41z" horiz-adv-x="583" vert-adv-y="1000"/><glyph glyph-name="uni0445" unicode="х" d="M407 700 292 360 415 0H299l-90 277L118 0H15l123 360L23 700h114l83-258 85 258z" horiz-adv-x="430" vert-adv-y="1000"/><glyph glyph-name="uni0446" unicode="ц" d="M40 700h110V100h125v600h112V98h48V-94H328V0H40z" horiz-adv-x="455" vert-adv-y="1000"/><glyph glyph-name="uni0447" unicode="ч" d="M374 700V0H264v282q-18-20-44.5-29.5T170 243q-68 0-102.5 44.5T33 404v296h110V413q0-35 19-52t45-17 41.5 18.5T264 416v284z" horiz-adv-x="415" vert-adv-y="1000"/><glyph glyph-name="uni0448" unicode="ш" d="M40 0v700h110V100h95v600h110V100h95v600h110V0z" horiz-adv-x="600" vert-adv-y="1000"/><glyph glyph-name="uni0449" unicode="щ" d="M560 98h49V-94H502V0H40v700h110V100h95v600h110V100h95v600h110z" horiz-adv-x="629" vert-adv-y="1000"/><glyph glyph-name="uni044A" unicode="ъ" d="M8 700h189V437h52q83 0 123.5-44T413 264v-91q0-85-40.5-129T249 0H87v600H8zm241-600q26 0 40 14t14 52v105q0 38-14 52t-40 14h-52V100z" horiz-adv-x="439" vert-adv-y="1000"/><glyph glyph-name="uni044B" unicode="ы" d="M40 0v700h110V437h52q83 0 123.5-44T366 264v-91q0-85-40.5-129T202 0zm162 100q26 0 40 14t14 52v105q0 38-14 52t-40 14h-52V100zM429 0v700h110V0z" horiz-adv-x="579" vert-adv-y="1000"/><glyph glyph-name="uni044C" unicode="ь" d="M40 0v700h110V437h52q83 0 123.5-44T366 264v-91q0-85-40.5-129T202 0zm162 100q26 0 40 14t14 52v105q0 38-14 52t-40 14h-52V100z" horiz-adv-x="392" vert-adv-y="1000"/><glyph glyph-name="uni044D" unicode="э" d="M130 251v-90q0-38 15.5-53T187 93t41.5 15 15.5 53v151H143v100h101v127q0 38-15.5 53.5T187 608t-41.5-15.5T130 539v-66H28v59q0 85 40.5 130.5T190 708t122.5-45.5T354 532V168q0-85-41.5-130.5T190-8 67.5 37.5 26 168v83z" horiz-adv-x="386" vert-adv-y="1000"/><glyph glyph-name="uni044E" unicode="ю" d="M232 300h-82V0H40v700h110V400h82v132q0 85 43 130.5T399 708t124-45.5T566 532V168q0-85-43-130.5T399-8 275 37.5 232 168zm110-139q0-38 15.5-53.5T399 92t41.5 15.5T456 161v378q0 38-15.5 53.5T399 608t-41.5-15.5T342 539z" horiz-adv-x="599" vert-adv-y="1000"/><glyph glyph-name="uni044F" unicode="я" d="M20 0q8 20 10 39.5T32 85v108q0 55 15.5 93.5T105 342q-72 34-72 142v55q0 81 38.5 121T196 700h166V0H252v285h-38q-38 0-55-20t-17-69V86q0-21-.5-35t-2-23-3.5-15-4-13zm179 600q-29 0-42.5-17T143 528v-69q0-42 17.5-58t48.5-16h43v215z" horiz-adv-x="402" vert-adv-y="1000"/><glyph glyph-name="uni22" unicode="&quot;" d="M40 700h106l-16-206H55zm139 0h106l-16-206h-75z" horiz-adv-x="325" vert-adv-y="1000"/><glyph glyph-name="uni21" unicode="!" d="M54 155 40 408v292h110V408l-14-253zm94-49V0H42v106z" horiz-adv-x="190" vert-adv-y="1000"/></font>
</defs>
</svg>
